<?xml version="1.0" standalone="no"?>
<!DOCTYPE svg PUBLIC "-//W3C//DTD SVG 1.1//EN" "http://www.w3.org/Graphics/SVG/1.1/DTD/svg11.dtd" >
<svg xmlns="http://www.w3.org/2000/svg">
<metadata>
This is a custom SVG webfont generated by Font Squirrel.
Copyright   : Copyright c 2011 by OmnibusType wwwomnibustypecom with Reserved Font Name Asap
Designer    : Pablo Cosgaya
Foundry     : OmnibusType
Foundry URL : wwwomnibustypecom
</metadata>
<defs>
<font id="AsapBoldItalic" horiz-adv-x="655" >
<font-face units-per-em="2048" ascent="1638" descent="-410" />
<missing-glyph horiz-adv-x="491" />
<glyph unicode=" "  horiz-adv-x="491" />
<glyph unicode="&#x09;" horiz-adv-x="491" />
<glyph unicode="&#xa0;" horiz-adv-x="491" />
<glyph unicode="!" horiz-adv-x="602" d="M82 61l20 189q6 66 129 65h66q117 0 117 -65l-21 -189q-6 -66 -129 -65h-65q-117 -1 -117 65zM170 520l90 852q6 66 129 66h88q119 0 119 -60q0 -41 -195 -858q-8 -35 -29.5 -50t-80.5 -15h-23q-61 0 -79.5 14t-18.5 51z" />
<glyph unicode="&#x22;" horiz-adv-x="653" d="M63 1012v360q0 66 130 66h14q117 0 117 -66l-84 -360q-14 -61 -76 -62h-31q-70 1 -70 62zM362 1012v360q0 66 130 66h14q117 0 117 -66l-84 -360q-14 -61 -76 -62h-31q-70 1 -70 62z" />
<glyph unicode="#" horiz-adv-x="1093" d="M-8 442q0 158 74 158h129l67 225h-98q-53 0 -53 70q0 156 75 156h140l84 290q18 63 122 64h27q86 0 86 -45q0 -12 -88 -309h193l84 290q18 63 122 64h27q86 0 86 -45q0 -12 -88 -309h68q53 0 53 -70q0 -156 -76 -156h-108l-68 -225h86q53 0 53 -70q0 -156 -76 -155h-127 l-92 -316q-18 -63 -121 -63h-26q-86 0 -86 47q0 14 94 332h-193l-92 -316q-18 -63 -120 -63h-27q-88 0 -88 47q0 10 96 332h-88q-51 0 -51 67zM426 600h192l68 225h-192z" />
<glyph unicode="$" horiz-adv-x="1015" d="M49 143q0 227 53 228q10 0 52.5 -30t112 -59.5t151.5 -29.5h10l37 340q-59 25 -87 38t-81 40.5t-81 54.5t-59.5 66.5t-46 89t-14.5 108.5q0 213 131 325.5t328 131.5l8 80q2 41 45 41h35q37 0 37 -41l-8 -78q135 -6 223 -47t88 -90q0 -43 -48 -113t-83 -70q-2 0 -67.5 25 t-141.5 27l-33 -320q68 -31 98.5 -46t88 -53t84 -72t50 -90t23.5 -122q0 -236 -126 -352.5t-310 -136.5l-10 -101q-6 -41 -45 -41h-35q-23 0 -30 9.5t-7 31.5l10 99q-131 6 -241.5 45t-110.5 112zM401 1044q0 -74 97 -129l26 254q-123 -29 -123 -125zM547 272 q102 38 102 144q0 63 -74 116z" />
<glyph unicode="%" horiz-adv-x="1566" d="M127 1040q0 121 33 207t88 127t110.5 58.5t116.5 17.5q274 0 275 -276q0 -121 -32 -207t-87.5 -128t-110 -59.5t-117.5 -17.5q-276 0 -276 278zM240 20q0 13 12 31l872 1331q35 55 95 56h90q41 0 41 -25q0 -12 -13 -31l-872 -1331q-35 -55 -94 -55h-90q-41 0 -41 24z M338 1059q0 -129 82 -129q63 0 91 72.5t28 154.5q0 117 -82 117q-63 0 -91 -65.5t-28 -149.5zM840 260q0 121 31.5 207t86 128t109.5 59.5t119 17.5q276 0 276 -281q0 -121 -32.5 -206t-88 -126t-111 -58t-116.5 -17q-274 0 -274 276zM1049 274q-1 -122 81 -122 q61 0 90 70.5t29 150.5q0 123 -82 123q-45 0 -72.5 -39t-36.5 -85t-9 -98z" />
<glyph unicode="&#x26;" horiz-adv-x="1277" d="M12 362q0 147 72 260t207 162v9q-74 33 -117 99t-43 157q0 182 127 291.5t332 109.5q217 0 217 -80q0 -68 -33 -121t-57 -53l-35 7q-35 7 -64 7q-86 0 -136 -51t-50 -137q0 -70 51.5 -110t143.5 -40h192l19 154q6 66 129 66h55q57 0 87 -18.5t30 -45.5l-17 -156h121 q20 0 26.5 -9t6.5 -32q0 -68 -32 -133t-87 -65h-59q-35 -336 -35 -342q0 -68 61 -68q23 0 49.5 6.5t28.5 6.5q16 0 17 -23q0 -39 -15 -123q-8 -51 -63.5 -78.5t-116.5 -27.5q-143 0 -211 82q-176 -82 -381 -82q-193 0 -306.5 100t-113.5 278zM319 395q0 -82 49.5 -127 t135.5 -45q123 0 254 53l37 357h-211q-264 0 -265 -238z" />
<glyph unicode="'" horiz-adv-x="374" d="M84 1012v360q0 66 129 66h14q117 0 117 -66l-84 -360q-14 -61 -76 -62h-30q-70 1 -70 62z" />
<glyph unicode="(" horiz-adv-x="616" d="M94 410q0 307 108.5 608t311.5 553q27 33 59 33q31 0 69 -29t38 -62q0 -20 -14 -45q-334 -520 -334 -1079q0 -326 145 -680q6 -16 6 -28q0 -37 -43 -72t-84 -35q-31 0 -51 33q-211 354 -211 803z" />
<glyph unicode=")" horiz-adv-x="616" d="M-70 -336q0 20 15 43q174 281 251.5 538t77.5 550q0 326 -145 673q-8 20 -8 29q0 37 44 72t85 35q31 0 51 -33q213 -360 213 -797q0 -84 -10 -186q-55 -543 -410 -981q-27 -33 -59 -33q-31 0 -68 28.5t-37 61.5z" />
<glyph unicode="*" horiz-adv-x="763" d="M74 1198q0 19 8 35q20 43 55 43q8 0 29 -4l151 -51l19 168q6 61 67 61q33 0 44.5 -14.5t11.5 -46.5l-19 -168l160 51q20 4 27 4q20 0 35.5 -17.5t15.5 -46.5q0 -45 -49 -59l-162 -49l100 -162q12 -18 13 -35q0 -18 -25 -41.5t-49 -23.5q-27 0 -45 30l-103 170l-139 -170 q-25 -31 -49 -30q-20 0 -42 19.5t-22 37.5q0 20 23 43l131 162l-147 49q-39 12 -39 45z" />
<glyph unicode="+" horiz-adv-x="1146" d="M80 442q0 150 76 150h309l33 315q6 61 108 62h29q55 0 75.5 -14.5t20.5 -47.5l-33 -315h314q53 0 53 -74q0 -145 -76 -145h-313l-33 -312q-6 -61 -108 -61h-29q-55 0 -75.5 14.5t-20.5 46.5l32 312h-309q-53 -1 -53 69z" />
<glyph unicode="," horiz-adv-x="405" d="M-43 -215q0 23 26.5 73t60.5 146t48 221q6 90 131 90h39q115 0 115 -81.5t-63.5 -200.5t-143.5 -204t-127 -85q-86 0 -86 41z" />
<glyph unicode="-" d="M53 504q0 150 76 149h418q53 0 53 -69q0 -150 -76 -150h-418q-53 0 -53 70z" />
<glyph unicode="." horiz-adv-x="405" d="M35 61l18 189q6 66 131 65h66q115 0 115 -65l-19 -189q-6 -66 -131 -65h-65q-68 0 -91.5 15t-23.5 50z" />
<glyph unicode="/" horiz-adv-x="757" d="M-141 -131q0 9 12 31l747 1476q31 61 134 62h49q82 0 82 -31q0 -10 -11 -31l-749 -1476q-31 -61 -131 -62h-49q-84 0 -84 31z" />
<glyph unicode="0" horiz-adv-x="1095" d="M51 555q0 412 160 653.5t412 241.5q199 0 308 -151.5t109 -426.5q0 -408 -160.5 -648t-410.5 -240q-199 0 -308.5 149.5t-109.5 421.5zM356 524q1 -301 138 -301q98 0 169.5 181.5t71.5 498.5q0 307 -137 307q-100 0 -171 -182t-71 -504z" />
<glyph unicode="1" horiz-adv-x="1095" d="M66 74q0 166 77 166h273l96 919l-283 -41q-49 0 -49 121q0 37 3 54.5t16.5 33.5t42.5 21l518 94q27 0 53.5 -15.5t26.5 -33.5l-121 -1153h219q53 0 53 -74q0 -166 -78 -166h-794q-53 0 -53 74z" />
<glyph unicode="2" horiz-adv-x="1095" d="M12 174q0 25 6 37l586 635q98 106 98 215q0 72 -47 109.5t-127 37.5q-86 0 -163.5 -44t-83.5 -44q-41 0 -72 44t-31 87q0 63 72 111.5t162 68t178 19.5q190 0 306 -101.5t116 -248.5q0 -154 -107 -298t-504 -562h488q53 0 53 -74q0 -166 -80 -166h-792q-23 0 -40.5 60.5 t-17.5 113.5z" />
<glyph unicode="3" horiz-adv-x="1095" d="M84 113q0 193 49 192q6 0 43 -20.5t101.5 -41t140.5 -20.5q102 0 163.5 62.5t61.5 173.5q0 174 -219 174h-59q-53 0 -54 74q0 166 80 165h39q109 0 170.5 54.5t61.5 142.5q0 66 -38 102.5t-112 36.5q-92 0 -169 -31.5t-81 -31.5q-29 0 -57.5 52t-28.5 97q0 76 123 116 t291 40q180 0 282.5 -85t102.5 -230q0 -119 -61.5 -210t-163.5 -132v-9q201 -80 200 -311q0 -223 -144.5 -356t-365.5 -133q-53 0 -103 4t-112.5 16t-101.5 40t-39 69z" />
<glyph unicode="4" horiz-adv-x="1095" d="M-2 467q0 31 6 37l701 895q31 39 129 39h55q117 0 117 -66l-88 -842h79q53 0 54 -73q0 -166 -80 -166h-78l-25 -230q-6 -66 -129 -65h-57q-117 0 -117 65l25 230h-537q-23 0 -39 61.5t-16 114.5zM307 530h307l50 469l-9 2z" />
<glyph unicode="5" horiz-adv-x="1095" d="M72 113q0 193 49 192q8 0 44 -20.5t104.5 -41t156.5 -20.5q113 0 177.5 67.5t64.5 186.5q0 184 -234 185h-223q-39 0 -54.5 12t-15.5 47q0 10 105 631q8 43 29.5 62.5t66.5 19.5h604q53 0 53 -74q0 -166 -79 -166h-414l-51 -293h53q229 0 350 -86t121 -293 q0 -147 -51 -255.5t-138.5 -168t-184.5 -87t-204 -27.5q-330 0 -329 129z" />
<glyph unicode="6" horiz-adv-x="1095" d="M41 428q0 221 80 406.5t190.5 293t235.5 183t208 103.5t113 28q43 0 63.5 -53.5t20.5 -104.5q0 -29 -6 -40t-24 -15q-250 -76 -400 -260q-55 -68 -88 -144q100 51 211 52q57 0 116.5 -19.5t117 -60.5t93.5 -117t36 -176q0 -135 -49.5 -239.5t-129 -163t-171 -88 t-185.5 -29.5q-180 0 -306 108.5t-126 335.5zM348 428q0 -205 152 -205q82 0 140 69.5t58 176.5q0 80 -43 124t-123 44q-74 0 -167 -49q-16 -106 -17 -160z" />
<glyph unicode="7" horiz-adv-x="1095" d="M84 35q0 16 14 39l625 1120h-535q-55 0 -55 74q0 166 80 166h811q14 0 28.5 -56.5t14.5 -107.5q0 -33 -6 -47l-653 -1186q-23 -41 -123 -41h-86q-115 0 -115 39z" />
<glyph unicode="8" horiz-adv-x="1095" d="M23 356q0 133 64.5 249t182.5 163q-123 88 -123 248q0 176 130.5 305t363.5 129q182 0 285.5 -91t103.5 -229q0 -233 -213 -342q188 -88 189 -325q0 -82 -28 -161t-85 -152.5t-164.5 -119.5t-251.5 -46q-229 0 -341.5 104t-112.5 268zM332 395q0 -80 44 -126t122 -46 q76 0 137 59.5t61 151.5q0 90 -51 137t-174 97q-139 -92 -139 -273zM449 1051q0 -61 38.5 -98.5t112.5 -67.5q131 80 131 205q0 55 -36 87.5t-89 32.5q-63 0 -110 -42t-47 -117z" />
<glyph unicode="9" horiz-adv-x="1095" d="M82 930q0 135 49 239.5t129 163t171 88t185 29.5q180 0 306.5 -108.5t126.5 -335.5q0 -221 -80 -406.5t-190.5 -293t-235.5 -183.5t-208 -103.5t-114 -27.5q-43 0 -63.5 53t-20.5 105q0 29 6.5 40t24.5 15q249 76 399 260q55 68 88 143q-100 -51 -211 -51 q-57 0 -116.5 19.5t-116.5 60.5t-93 116.5t-36 176.5zM391 965q0 -80 43 -124t123 -44q74 0 168 49q16 106 16 160q0 205 -151 204q-82 0 -140.5 -69.5t-58.5 -175.5z" />
<glyph unicode=":" horiz-adv-x="405" d="M-4 61l18 189q6 66 129 65h66q117 0 117 -65l-21 -189q-6 -66 -129 -65h-65q-115 -1 -115 65zM74 821l20 189q6 66 129 65h66q117 0 117 -65l-21 -189q-6 -66 -129 -65h-66q-116 -1 -116 65z" />
<glyph unicode=";" horiz-adv-x="405" d="M-84 -215q0 23 26.5 73t60.5 146t48 221q6 90 131 90h39q115 0 115 -81.5t-63.5 -200.5t-143.5 -204t-127 -85q-86 0 -86 41zM86 821l20 189q4 66 130 65h65q117 0 117 -65l-21 -189q-6 -66 -129 -65h-65q-117 -1 -117 65z" />
<glyph unicode="&#x3c;" horiz-adv-x="1146" d="M74 465q0 115 71 143l897 367q16 4 23 4q33 0 33 -51q0 -158 -80 -189l-623 -237l574 -238q51 -23 51 -96q0 -145 -55 -145q-8 0 -21 6l-821 368q-49 21 -49 68z" />
<glyph unicode="=" horiz-adv-x="1146" d="M57 246q0 150 76 149h860q53 0 54 -69q0 -150 -76 -150h-860q-54 0 -54 70zM96 616q0 150 76 150h860q53 0 53 -70q0 -150 -75 -149h-860q-54 -1 -54 69z" />
<glyph unicode="&#x3e;" horiz-adv-x="1146" d="M35 76q0 158 80 188l622 238l-573 237q-51 20 -51 97q0 145 55 145q8 0 20 -6l822 -369q49 -20 49 -67q0 -115 -72 -144l-897 -366q-16 -4 -22 -4q-33 0 -33 51z" />
<glyph unicode="?" horiz-adv-x="911" d="M123 1280q0 57 70.5 98t157.5 56.5t175 15.5q193 0 300.5 -85t107.5 -235q0 -98 -40 -178t-99.5 -134t-121 -100t-113.5 -99.5t-68 -108.5q-14 -33 -39 -44t-76 -11h-47q-55 0 -74.5 13t-19.5 46q0 72 38.5 142.5t93 125t109.5 104.5t94 101t39 94q0 98 -139 99 q-70 0 -151.5 -32t-83.5 -32q-39 0 -76 61.5t-37 102.5zM156 61l18 189q6 66 131 65h66q115 0 114 -65l-18 -189q-6 -66 -131 -65h-66q-68 0 -91 15t-23 50z" />
<glyph unicode="@" horiz-adv-x="1994" d="M172 492q0 403 266.5 680.5t655.5 277.5q309 0 495.5 -182.5t186.5 -483.5q0 -279 -138.5 -472t-339.5 -193q-182 0 -233 131q-78 -131 -231 -131q-127 0 -202 96t-75 274q0 246 105.5 398.5t273.5 152.5q117 0 209 -92q12 47 32.5 64.5t73.5 17.5h25q96 0 96 -53 q0 -2 -31.5 -297t-31.5 -318q0 -74 71 -73q106 0 185.5 147.5t79.5 347.5q0 250 -152 402.5t-399 152.5q-332 0 -561.5 -245.5t-229.5 -601.5q0 -283 148.5 -458t388.5 -175q88 0 157.5 15t105.5 31.5t42 16.5q12 0 12 -24q0 -23 -6 -54q-10 -53 -114.5 -74.5t-196.5 -21.5 q-297 0 -482.5 206t-185.5 538zM813 506q0 -180 117 -180q70 0 133 98l27 268q16 100 16 101q-51 47 -111 47q-86 0 -134 -86t-48 -248z" />
<glyph unicode="A" horiz-adv-x="1255" d="M-76 37q1 16 13 41l595 1317q18 43 121 43h107q102 0 112 -43l324 -1317q6 -18 6 -35q0 -47 -110 -47h-91q-100 0 -110 43l-60 250h-495l-113 -250q-20 -43 -98 -43h-82q-119 0 -119 41zM453 559h315l-82 365q-8 26 -16 131h-8q-30 -96 -46 -131z" />
<glyph unicode="B" horiz-adv-x="1214" d="M82 66q0 8 17 170q50 479 116 1116q8 82 90 82h406q231 0 339.5 -84t108.5 -232q0 -119 -71.5 -216t-184.5 -142v-8q111 -23 177.5 -108t66.5 -193q0 -215 -147.5 -333t-409.5 -118h-434q-41 0 -57.5 14.5t-16.5 51.5zM416 268h200q94 0 150.5 48.5t56.5 136.5 q0 141 -205 141h-167zM479 862h142q96 0 151 50.5t55 125.5q0 129 -170 129h-145z" />
<glyph unicode="C" horiz-adv-x="1267" d="M86 565q0 186 40 339t125 279t238.5 196.5t364.5 70.5q145 0 279.5 -40t134.5 -99q0 -43 -58.5 -120t-95.5 -77q-6 0 -40 16.5t-101.5 33t-153.5 16.5q-199 0 -303 -143.5t-104 -426.5q0 -358 307 -358q102 0 197.5 27.5t151.5 56.5t62 29q25 0 25 -31q0 -86 -20 -195 q-16 -82 -168 -118.5t-277 -36.5q-307 0 -455.5 142t-148.5 439z" />
<glyph unicode="D" horiz-adv-x="1423" d="M82 68l133 1284q8 82 90 82h459q287 0 437.5 -153t150.5 -439q0 -401 -198 -621.5t-540 -220.5h-458q-41 0 -57.5 15.5t-16.5 52.5zM418 268h223q178 0 281.5 142.5t103.5 402.5q0 352 -289 352h-223z" />
<glyph unicode="E" horiz-adv-x="1118" d="M82 66l133 1286q8 82 90 82h750q53 0 53 -82q0 -186 -78 -187h-516l-33 -297h459q53 0 53 -82q0 -186 -78 -186h-460l-37 -332h516q53 0 53 -82q0 -186 -78 -186h-753q-41 0 -57.5 14.5t-16.5 51.5z" />
<glyph unicode="F" horiz-adv-x="1030" d="M86 59l135 1293q8 82 90 82h686q53 0 54 -82q0 -186 -78 -187h-453l-33 -299h437q53 0 53 -82q0 -186 -78 -186h-438l-58 -537q-6 -65 -129 -65h-71q-117 0 -117 63z" />
<glyph unicode="G" horiz-adv-x="1376" d="M84 565q0 440 196.5 662.5t571.5 222.5q145 0 280.5 -40t135.5 -99q0 -43 -58.5 -120t-95.5 -77q-6 0 -40 16.5t-102.5 33t-154.5 16.5q-199 0 -303 -143.5t-104 -426.5q0 -358 307 -358q82 0 160 14l28 262h-178q-53 0 -53 82q0 186 78 187h417q41 0 58.5 -14.5 t17.5 -49.5l-63 -588q-6 -49 -61.5 -83.5t-140.5 -50t-154.5 -21.5t-137.5 -6q-307 0 -455.5 142t-148.5 439z" />
<glyph unicode="H" horiz-adv-x="1501" d="M86 59l137 1313q6 66 129 66h72q117 0 117 -64l-54 -508h553l54 506q6 66 129 66h71q117 -1 117 -64l-137 -1313q-6 -65 -125 -65h-4h-72q-117 0 -117 63l56 537h-553l-56 -535q-6 -65 -125 -65h-4h-71q-117 0 -117 63z" />
<glyph unicode="I" horiz-adv-x="577" d="M61 59l138 1313q6 66 129 66h71q117 -1 117 -64l-137 -1313q-6 -65 -125 -65h-4h-72q-117 0 -117 63z" />
<glyph unicode="J" horiz-adv-x="823" d="M-35 72q0 198 41 198q4 0 18.5 -5t43 -9t67.5 -4q92 0 137.5 50t57.5 163l96 907q6 66 129 66h72q117 0 116 -64l-102 -960q-23 -203 -140.5 -316.5t-338.5 -113.5q-197 0 -197 88z" />
<glyph unicode="K" horiz-adv-x="1179" d="M72 61l137 1311q6 66 129 66h72q117 0 116 -66l-57 -549l8 -2l416 578q29 39 127 39h96q113 0 113 -29q0 -18 -21 -45l-458 -606l374 -688q12 -25 13 -37q0 -37 -117 -37h-119q-102 0 -121 39l-321 622l-8 -2l-62 -594q-6 -65 -125 -65h-4h-72h-3q-113 0 -113 65z" />
<glyph unicode="L" horiz-adv-x="991" d="M74 66l137 1306q6 66 129 66h72q117 0 116 -64l-116 -1106h456q53 0 54 -82q0 -186 -78 -186h-697q-41 0 -57 14.5t-16 51.5z" />
<glyph unicode="M" horiz-adv-x="1726" d="M84 61l137 1311q6 66 129 66h109q100 0 125 -56l293 -641l432 641q37 55 133 56h106q117 0 117 -66l-137 -1311q-6 -65 -125 -65h-4h-60q-117 0 -116 65l88 848l-8 2l-353 -530q-33 -39 -86 -39h-59q-51 0 -78 39l-242 530l-8 -2l-88 -848q-6 -65 -125 -65h-4h-59h-3 q-114 0 -114 65z" />
<glyph unicode="N" horiz-adv-x="1472" d="M72 61l137 1311q6 66 129 66h88q100 0 131 -56l451 -829l86 819q6 66 129 66h59q117 0 117 -66l-137 -1311q-6 -65 -125 -65h-4h-78q-100 0 -131 55l-461 840l-86 -830q-6 -65 -125 -65h-4h-60h-3q-113 0 -113 65z" />
<glyph unicode="O" horiz-adv-x="1497" d="M84 582q0 170 41 320.5t126 275.5t232.5 198.5t341.5 73.5q285 0 435.5 -154.5t150.5 -447.5q0 -418 -190.5 -641t-548.5 -223q-285 0 -436.5 153.5t-151.5 444.5zM410 608q0 -356 290 -356q178 0 282.5 148.5t104.5 418.5q0 360 -290 361q-180 0 -283.5 -148.5 t-103.5 -423.5z" />
<glyph unicode="P" horiz-adv-x="1167" d="M70 61l135 1291q8 82 90 82h444q59 0 112.5 -7.5t117 -31t108.5 -62.5t76 -109.5t31 -164.5q0 -131 -42 -231.5t-99.5 -153.5t-135.5 -86t-134 -42t-107 -9h-232l-49 -476q-6 -65 -125 -65h-4h-70h-3q-113 0 -113 65zM463 807h196q80 0 139.5 46t59.5 163q0 82 -47 115.5 t-113 33.5h-196z" />
<glyph unicode="Q" horiz-adv-x="1497" d="M84 586q0 170 42 320.5t128 274.5t233.5 196.5t339.5 72.5q285 0 434.5 -154.5t149.5 -447.5q0 -289 -105.5 -491.5t-289.5 -293.5l-2 -8l291 -110q35 -14 34 -56q0 -221 -59 -221q-8 0 -128 49.5t-364.5 151.5t-394.5 164q-305 127 -309 553zM410 606q0 -362 290 -362 q180 0 283.5 151.5t103.5 429.5q0 354 -288 355q-180 0 -284.5 -149.5t-104.5 -424.5z" />
<glyph unicode="R" horiz-adv-x="1249" d="M72 61l135 1291q8 82 90 82h399q473 0 473 -334q0 -135 -74.5 -233.5t-201.5 -143.5v-8q35 -14 70.5 -68.5t56.5 -120.5l133 -450q6 -25 6 -39q-6 -41 -127 -41h-84q-100 0 -114 43l-121 399q-25 68 -62 95.5t-131 27.5h-80l-53 -500q-6 -65 -125 -65h-4h-70h-3 q-113 0 -113 65zM469 834h195q68 0 122 57t54 135q0 66 -41 102.5t-115 36.5h-180z" />
<glyph unicode="S" horiz-adv-x="1024" d="M53 143q0 227 53 228q10 0 52.5 -30t112 -59.5t151.5 -29.5q84 0 145.5 37t61.5 127q0 49 -39 88t-98.5 61.5t-127 57t-127 72.5t-98.5 110t-39 168q0 131 47.5 228t126 149.5t169 76t190.5 23.5q152 0 253 -43t101 -96q0 -43 -48 -113t-83 -70q-8 0 -35.5 13.5t-78 26 t-109.5 12.5q-63 0 -106.5 -14.5t-63 -37t-26.5 -43t-7 -41.5q0 -55 54.5 -95t132 -71.5t155.5 -71.5t132 -120t54 -192q0 -119 -31.5 -210t-81.5 -146.5t-120 -91.5t-137.5 -49t-141.5 -13q-76 0 -160.5 14t-158.5 52t-74 93z" />
<glyph unicode="T" horiz-adv-x="1124" d="M70 1252q0 182 77 182h971q53 0 53 -82q0 -186 -77 -187h-328l-117 -1104q-6 -65 -125 -65h-4h-71q-117 0 -117 63l117 1106h-326q-53 0 -53 87z" />
<glyph unicode="U" horiz-adv-x="1458" d="M104 412q1 22 97 960q6 66 131 66h69q115 0 115 -66q-92 -883 -92 -903q0 -96 69.5 -156.5t184.5 -60.5q123 0 210 69.5t97 178.5l90 872q6 66 131 66h68q115 0 115 -66l-93 -893q-25 -236 -195.5 -365.5t-451.5 -129.5q-260 0 -402.5 111.5t-142.5 316.5z" />
<glyph unicode="V" horiz-adv-x="1263" d="M80 1378q0 59 129 60h67q100 0 115 -60l199 -958h8l408 958q25 59 127 60h63q117 0 117 -49q0 -16 -8 -33l-580 -1317q-18 -43 -119 -43h-106q-101 0 -111 43l-305 1317q-4 16 -4 22z" />
<glyph unicode="W" horiz-adv-x="1806" d="M59 1370q0 68 134 68h53q123 0 131 -64l84 -659l33 -295l100 295l240 680q16 43 116 43h78q102 0 109 -43l90 -680l39 -309q12 39 49 151.5t51 157.5l229 659q20 63 144 64h22q123 0 123 -52q0 -8 -8 -32l-471 -1315q-16 -43 -117 -43h-149q-102 0 -109 43l-112 848 l-297 -848q-18 -43 -117 -43h-148q-106 0 -108 43q-188 1321 -189 1331z" />
<glyph unicode="X" horiz-adv-x="1251" d="M-63 37q-1 20 22 49l490 662l-312 600q-12 25 -12 41q0 23 21.5 34t45 13t64.5 2h84q98 0 119 -39l194 -381l285 381q31 39 129 39h80q121 0 121 -41q0 -20 -21 -49l-450 -605l340 -657q10 -25 10 -39q0 -51 -129 -51h-80q-100 0 -119 39l-227 440l-328 -440 q-31 -39 -129 -39h-78q-121 0 -120 41z" />
<glyph unicode="Y" horiz-adv-x="1144" d="M66 1389q0 23 21.5 34t45 13t64.5 2h88q100 0 118 -39l205 -438l297 438q27 39 127 39h74q125 0 125 -41q0 -18 -23 -51l-477 -664l-65 -621q-6 -65 -125 -65h-4h-70h-3q-114 0 -114 65l66 627l-338 658q-12 25 -12 43z" />
<glyph unicode="Z" horiz-adv-x="1261" d="M2 178q0 25 6 31l780 956h-569q-53 0 -53 82q0 186 78 187h927q27 0 46.5 -63.5t19.5 -115.5q0 -24 -6 -30l-782 -957h624q53 0 53 -82q0 -186 -77 -186h-981q-27 0 -46.5 63.5t-19.5 114.5z" />
<glyph unicode="[" horiz-adv-x="595" d="M45 -217l178 1708q8 82 90 82h260q53 0 54 -62q0 -133 -76 -133h-105l-153 -1466h106q53 0 54 -62q0 -133 -76 -133h-258q-41 0 -57.5 14.5t-16.5 51.5z" />
<glyph unicode="\" horiz-adv-x="739" d="M76 1395q0 43 94 43h47q104 0 115 -62l332 -1360q2 -6 2 -16q0 -45 -93 -45h-49q-102 0 -114 61l-330 1360q-4 12 -4 19z" />
<glyph unicode="]" horiz-adv-x="595" d="M-29 -221q0 133 76 133h105l153 1466h-106q-53 0 -54 62q0 133 76 133h258q41 0 57.5 -14.5t16.5 -51.5l-178 -1708q-8 -82 -90 -82h-260q-53 0 -54 62z" />
<glyph unicode="^" horiz-adv-x="921" d="M35 680q0 15 10 33l332 630q31 61 92 62h63q61 0 80 -62l197 -630q6 -12 6 -31q-4 -31 -70 -31h-43q-82 0 -100 62l-131 424l-221 -424q-33 -61 -111 -62h-43q-61 0 -61 29z" />
<glyph unicode="_" horiz-adv-x="1093" d="M-43 -223q0 150 76 149h1054q53 0 54 -69q0 -150 -76 -150h-1055q-53 0 -53 70z" />
<glyph unicode="`" d="M123 1511q0 33 127 33q141 0 168 -55q20 -43 39.5 -84t31 -63.5t20.5 -43t13 -31t4 -16.5q1 -32 -67 -32q-104 0 -148 51q-47 59 -110 134q-78 93 -78 107z" />
<glyph unicode="a" horiz-adv-x="1116" d="M49 426q0 295 127 477t328 182q133 0 248 -108q18 61 38.5 77.5t94.5 18.5h24q119 0 119 -51l-38 -356q-38 -356 -38 -377q0 -66 62 -66q16 0 36.5 6.5t22.5 6.5q16 0 17 -23q0 -39 -15 -123q-8 -51 -63.5 -78.5t-116.5 -27.5q-195 0 -236 153q-47 -70 -119.5 -112.5 t-158.5 -42.5q-152 0 -242 115.5t-90 328.5zM356 444q1 -215 140 -215q84 0 159 119q25 279 29 308.5t25 134.5q-63 55 -136 55q-104 0 -160.5 -103.5t-56.5 -298.5z" />
<glyph unicode="b" horiz-adv-x="1165" d="M53 47l152 1432q6 65 125 65h4h57q57 0 87 -18.5t30 -44.5l-55 -510q99 116 245 116h2q170 0 271.5 -115.5t101.5 -328.5q0 -295 -138 -477t-357 -182q-137 0 -248 106q-18 -59 -40 -75.5t-93 -18.5h-25q-119 0 -119 51zM375 276q61 -53 133 -53q123 0 190.5 103.5 t67.5 298.5q0 111 -43 163t-137 52q-82 0 -158 -115l-29 -268z" />
<glyph unicode="c" horiz-adv-x="993" d="M97.5 675q29.5 116 94 211t179 148t270.5 53q111 0 216.5 -31.5t107.5 -109.5q0 -33 -41 -94t-72 -61q-8 0 -33 14q-80 43 -168 43q-270 0 -270 -399q0 -115 46 -170.5t144 -55.5q123 0 254 66q33 16 43 16q15 0 15 -29q0 -102 -17 -157q-25 -70 -128 -102.5t-206 -32.5 q-464 0 -464 432q0 143 29.5 259z" />
<glyph unicode="d" horiz-adv-x="1157" d="M53 428q0 295 132 477t343 182q117 0 220 -83l51 475q6 65 125 65h4h57q57 0 87 -18.5t30 -44.5q-125 -1169 -125 -1190q0 -68 61 -68q16 0 37 6.5t23 6.5q16 0 16 -23q0 -39 -14 -123q-8 -51 -63.5 -78.5t-116.5 -27.5q-195 0 -236 157q-97 -157 -276 -157h-2 q-162 0 -257.5 115.5t-95.5 328.5zM360 446q0 -215 160 -215q86 0 162 121q2 20 18.5 181t26.5 266q-61 49 -129 49q-113 0 -175.5 -103.5t-62.5 -298.5z" />
<glyph unicode="e" horiz-adv-x="1103" d="M68 434q0 334 157.5 493.5t405.5 159.5q117 0 200.5 -30.5t123.5 -79.5t56.5 -94t16.5 -92q0 -188 -133 -281.5t-307 -93.5q-113 0 -213 14q6 -119 60.5 -163t154.5 -44q72 0 145.5 22.5t119.5 45t52 22.5q16 0 17 -28q0 -2 -2 -35t-6.5 -71t-8.5 -52 q-23 -76 -133 -109.5t-223 -33.5q-244 0 -363.5 118.5t-119.5 331.5zM389 618h98q131 0 188.5 40t57.5 94q0 96 -123 96q-170 0 -221 -230z" />
<glyph unicode="f" horiz-adv-x="665" d="M70 905q0 166 77 166h43l15 154q14 158 101 244.5t233 86.5q196 0 196 -93q0 -34 -25.5 -95t-50.5 -61q-4 0 -24.5 5t-42.5 5q-74 0 -82 -88l-18 -158h122q20 0 26.5 -9t6.5 -32q0 -68 -31.5 -133.5t-87.5 -65.5h-61l-80 -770q-6 -65 -125 -65h-4h-57q-57 0 -87 18.5 t-30 44.5l80 772h-41q-53 0 -53 74z" />
<glyph unicode="g" horiz-adv-x="1118" d="M66 436q0 291 132 471t343 180q133 0 245 -106q18 59 40 75.5t94 18.5h24q119 0 119 -51l-84 -834q-33 -315 -159 -469.5t-363 -154.5q-160 0 -269.5 41t-109.5 104q0 178 41 178q6 0 43 -20.5t100.5 -42t132.5 -21.5q117 0 185.5 68t81.5 195l6 61q-102 -121 -250 -121 q-162 0 -257 111.5t-95 316.5zM373 453q0 -197 159 -197q84 0 160 119l27 239q18 156 24 181q-66 53 -133 53q-113 0 -175 -101.5t-62 -293.5z" />
<glyph unicode="h" horiz-adv-x="1157" d="M45 59l150 1420q6 65 125 65h4h57q57 0 87 -18.5t30 -44.5l-56 -533q55 59 137.5 99t163.5 40q270 0 271 -260q0 -25 -25.5 -272.5t-25.5 -263.5q0 -68 61 -68q16 0 36.5 6.5t22.5 6.5q16 0 17 -23q0 -39 -15 -123q-8 -51 -63 -78.5t-117 -27.5q-248 0 -248 260 q0 27 24 253t24 238q0 102 -111 103q-94 0 -176 -117l-70 -660q-6 -65 -125 -65h-4h-57q-57 0 -87 18t-30 45z" />
<glyph unicode="i" horiz-adv-x="542" d="M59 244l78 766q6 65 125 65h4h58q57 0 86.5 -18.5t29.5 -44.5q-76 -700 -75 -721q0 -68 61 -68q16 0 36.5 6.5t22.5 6.5q16 0 17 -23q0 -39 -15 -123q-8 -51 -63 -78.5t-117 -27.5q-248 0 -248 260zM168 1311l18 168q6 65 125 65h4h58q57 0 86.5 -18t29.5 -45l-18 -168 q-6 -66 -129 -66h-57q-57 0 -87 18.5t-30 45.5z" />
<glyph unicode="j" horiz-adv-x="565" d="M-141 -354q0 170 37 170q2 0 24.5 -5.5t46.5 -5.5q74 0 82 89l117 1116q6 65 125 65h4h57q57 0 87 -18t30 -45l-117 -1114q-16 -158 -102 -245t-232 -87q-160 0 -159 80zM197 1311l18 168q6 65 125 65h4h57q57 0 87 -18t30 -45l-18 -168q-6 -66 -129 -66h-58 q-57 0 -86.5 18.5t-29.5 45.5z" />
<glyph unicode="k" horiz-adv-x="1067" d="M51 61l150 1418q6 65 125 65h4h57q117 0 117 -65l-86 -811l8 -2l287 370q31 39 129 39h76q112 0 112 -28q0 -14 -24 -43l-326 -406l278 -528q10 -20 11 -37q0 -37 -119 -37h-86q-100 0 -119 39l-235 471l-9 -2l-47 -443q-6 -65 -125 -65h-4h-57h-3q-114 0 -114 65z" />
<glyph unicode="l" horiz-adv-x="608" d="M68 244l129 1241q8 61 106 61h98q96 0 97 -55q-125 -1192 -125 -1200q0 -68 61 -68q16 0 37 6.5t23 6.5q16 0 16 -23q0 -39 -14 -123q-8 -51 -63.5 -78.5t-117.5 -27.5q-247 0 -247 260z" />
<glyph unicode="m" horiz-adv-x="1736" d="M57 59l70 672q8 80 8 146q0 27 -2 64.5t-2 49.5q0 33 68 53.5t170 20.5q27 0 41 -21.5t18 -45t6 -68.5q53 66 141.5 111.5t176.5 45.5q213 0 258 -157q51 63 143 110t184 47q270 0 271 -260q0 -25 -26 -272.5t-26 -263.5q0 -68 62 -68q16 0 36.5 6.5t22.5 6.5 q16 0 17 -23q0 -39 -15 -123q-8 -51 -63 -78.5t-117 -27.5q-248 0 -248 260q0 27 23.5 253t23.5 238q0 102 -110 103q-96 0 -176 -117l-64 -660q-6 -65 -125 -65h-4h-57q-57 0 -87 18.5t-30 44.5q68 655 68 676q0 102 -111 103q-96 0 -176 -119l-66 -658q-6 -65 -125 -65h-4 h-57q-57 0 -87 18.5t-30 44.5z" />
<glyph unicode="n" horiz-adv-x="1140" d="M45 59l70 672q8 80 8 146q0 27 -2 64.5t-2 49.5q0 33 67.5 53.5t169.5 20.5q39 0 50.5 -34t15.5 -105q53 66 142 113.5t179 47.5q270 0 271 -260q0 -25 -25.5 -272.5t-25.5 -263.5q0 -68 61 -68q16 0 36.5 6.5t22.5 6.5q16 0 17 -23q0 -39 -15 -123q-8 -51 -63 -78.5 t-117 -27.5q-248 0 -248 260q0 27 24 253t24 238q0 102 -111 103q-100 0 -180 -125l-66 -652q-6 -65 -125 -65h-4h-57q-57 0 -87 18.5t-30 44.5z" />
<glyph unicode="o" horiz-adv-x="1165" d="M68 432q0 133 28.5 244.5t90 207t175 149.5t267.5 54q219 0 331.5 -114.5t112.5 -335.5q0 -311 -149.5 -482t-411.5 -171q-219 0 -331.5 114.5t-112.5 333.5zM375 446q0 -223 162 -223q106 0 166.5 103.5t60.5 296.5q0 225 -160 225q-109 0 -169 -103.5t-60 -298.5z" />
<glyph unicode="p" horiz-adv-x="1173" d="M23 -358l114 1089q8 80 8 146q0 27 -2 64.5t-2 49.5q0 33 68 53.5t170 20.5q57 0 65 -123q102 145 268.5 145t264.5 -115.5t98 -328.5q0 -295 -135 -477t-350 -182q-115 0 -219 82l-45 -422q-6 -66 -129 -66h-58q-57 0 -86.5 18.5t-29.5 45.5zM391 270q57 -47 129 -47 q119 0 183.5 103.5t64.5 298.5q0 215 -170 215q-88 0 -164 -125q-6 -70 -43 -445z" />
<glyph unicode="q" horiz-adv-x="1159" d="M63 428q0 295 135.5 477t350.5 182q137 0 248 -106q18 59 39.5 75.5t93.5 18.5h24q119 0 119 -51l-145 -1380q-6 -66 -129 -66h-58q-57 0 -86.5 18.5t-29.5 45.5l47 458q-99 -116 -244 -116h-2q-166 0 -264.5 115.5t-98.5 328.5zM371 446q0 -215 170 -215q82 0 157 115 l29 268l25 181q-61 53 -134 53q-119 0 -183 -103.5t-64 -298.5z" />
<glyph unicode="r" horiz-adv-x="749" d="M55 59l70 672q8 80 8 146q0 27 -2 64.5t-2 49.5q0 33 67.5 53.5t170.5 20.5q27 0 41 -20.5t17 -42t7 -70.5q103 155 238 155h2q96 0 96 -94q0 -51 -29.5 -120.5t-52.5 -69.5q-6 0 -30.5 9t-53.5 9q-100 0 -178 -104q-66 -655 -66 -656q-6 -65 -125 -65h-4h-57 q-57 0 -87 18.5t-30 44.5z" />
<glyph unicode="s" horiz-adv-x="845" d="M45 109q0 184 45 184q4 0 36 -17.5t84 -35t105 -17.5q135 0 136 103q0 43 -38 70.5t-91.5 46t-106.5 44t-91 82t-38 140.5q0 182 112.5 280t293.5 98q111 0 205 -29.5t94 -94.5q0 -33 -40 -93.5t-69 -60.5q-4 0 -55.5 20.5t-112.5 20.5q-117 0 -117 -82q0 -43 57.5 -73.5 t125 -52t125 -87.5t57.5 -170q0 -188 -117 -294.5t-305 -106.5q-33 0 -74 4t-95 16t-90 39t-36 66z" />
<glyph unicode="t" horiz-adv-x="700" d="M80 905q0 166 78 166h41l20 195q6 65 125 65h4h58q57 0 86.5 -18.5t29.5 -44.5l-20 -197h121q20 0 26 -9t6 -32q0 -68 -31.5 -133.5t-86.5 -65.5h-60q-57 -535 -57 -540q0 -68 61 -68q23 0 49.5 6.5t28.5 6.5q16 0 16 -23q0 -39 -14 -123q-8 -51 -63.5 -78.5 t-116.5 -27.5q-266 0 -266 272l59 575h-41q-53 0 -53 74z" />
<glyph unicode="u" horiz-adv-x="1140" d="M57 244q0 33 18.5 224t38.5 367l19 175q6 65 125 65h4h57q57 0 87 -18.5t30 -44.5q-70 -651 -69 -678q0 -100 110 -101q96 0 176 111l70 666q6 65 125 65h4h57q57 0 87 -18.5t30 -44.5q-76 -700 -76 -721q0 -68 62 -68q16 0 36.5 6.5t22.5 6.5q16 0 16 -23 q0 -39 -14 -123q-8 -51 -63.5 -78.5t-116.5 -27.5q-199 0 -238 163q-59 -70 -147 -116.5t-180 -46.5q-139 0 -205 63.5t-66 196.5z" />
<glyph unicode="v" horiz-adv-x="993" d="M51 1024q0 51 129 51h68q100 0 110 -43l82 -379q6 -27 16.5 -120t14.5 -127h8q51 170 84 247l160 379q18 43 119 43h51q117 0 117 -47q0 -16 -9 -35l-426 -954q-18 -43 -118 -43h-66q-100 0 -110 43l-226 954q-4 25 -4 31z" />
<glyph unicode="w" horiz-adv-x="1529" d="M78 1022q6 53 133 53h49q102 0 109 -43l96 -631l221 631q15 43 117 43h49q102 0 109 -43l86 -631l231 631q16 43 117 43h8q121 0 121 -49q0 -14 -6 -35l-342 -952q-16 -43 -117 -43h-101q-98 0 -108 43l-86 575l-201 -575q-14 -43 -117 -43h-100q-102 0 -108 43l-158 952 q-2 12 -2 31z" />
<glyph unicode="x" horiz-adv-x="993" d="M-57 37q-1 16 24 47l359 459l-244 442q-16 27 -16 49q0 41 131 41h65q102 0 121 -39l129 -252l188 252q29 39 129 39h60q123 0 123 -39q0 -18 -25 -49l-346 -442l254 -459q14 -27 14 -45q0 -29 -31.5 -37t-97.5 -8h-65q-100 0 -121 39l-139 268l-199 -268 q-29 -39 -129 -39h-61q-123 0 -123 41z" />
<glyph unicode="y" horiz-adv-x="985" d="M55 1022q0 53 131 53h66q100 0 110 -43l80 -379q8 -39 33 -247h8q55 182 82 247l162 379q18 43 119 43h49q119 0 119 -43q0 -4 -10 -39l-615 -1372q-18 -43 -119 -43h-34q-119 0 -119 41q0 16 12 39l166 342q-240 1012 -240 1022z" />
<glyph unicode="z" horiz-adv-x="1001" d="M14 150q0 31 9 38l534 643h-385q-53 0 -53 74q0 166 78 166h721q18 0 33.5 -52t15.5 -97q-1 -31 -9 -39l-534 -643h424q53 0 53 -74q0 -166 -78 -166h-760q-18 0 -33.5 52t-15.5 98z" />
<glyph unicode="{" horiz-adv-x="561" d="M33 621q0 57 15 86.5t58 52.5q55 29 83 79t38 152l37 344q10 106 71.5 172t156.5 66h79q55 0 56 -60q0 -133 -76 -133q-49 0 -55 -73l-35 -349q-25 -225 -172 -313q109 -66 108 -246q0 -45 -20.5 -223t-20.5 -213q0 -53 41 -53q53 0 54 -60q0 -133 -74 -133h-80 q-82 0 -131 56.5t-49 146.5q0 35 21.5 207t21.5 246q0 63 -19.5 103t-44 53.5t-44 36t-19.5 55.5z" />
<glyph unicode="|" horiz-adv-x="512" d="M139 -221v1732q0 61 103 62h30q102 0 103 -62v-1732q0 -61 -103 -62h-30q-103 1 -103 62z" />
<glyph unicode="}" horiz-adv-x="561" d="M-55 -223q0 133 75 133q47 0 56 74l35 348q23 227 172 313q-109 66 -109 246q0 45 20.5 223t20.5 213q0 53 -41 53q-53 0 -53 60q0 133 74 133h79q82 0 131.5 -56.5t49.5 -146.5q0 -35 -21.5 -207t-21.5 -245q0 -63 19.5 -103.5t44 -53.5t44 -36t19.5 -55 q0 -59 -15.5 -89t-58.5 -51q-55 -29 -83 -81t-38 -150l-37 -344q-10 -106 -71.5 -172t-155.5 -66h-80q-55 0 -55 60z" />
<glyph unicode="~" horiz-adv-x="1120" d="M131 543q0 53 104.5 109.5t186.5 56.5t192.5 -43t157.5 -43q31 0 74 15t59 15q35 0 60.5 -41t25.5 -77q0 -57 -108.5 -108.5t-184.5 -51.5q-84 0 -193.5 43t-156.5 43q-41 0 -81 -11.5t-52 -11.5q-31 0 -57.5 35t-26.5 70z" />
<glyph unicode="&#xa1;" horiz-adv-x="602" d="M25 -307q-1 39 194 858q8 35 29.5 50t81.5 15h22q61 0 80 -14t19 -51l-91 -852q-6 -66 -129 -66h-88q-119 0 -118 60zM207 821l20 189q6 66 129 65h66q117 1 117 -65l-21 -189q-6 -66 -129 -65h-65q-117 0 -117 65z" />
<glyph unicode="&#xa2;" horiz-adv-x="995" d="M78 418q0 285 123 469t395 198l10 84q6 41 45 41h35q37 0 37 -41l-10 -86q246 -25 245 -137q0 -33 -40.5 -94t-71.5 -61q-6 0 -53.5 24.5t-104.5 30.5l-65 -621q57 6 111 26.5t86 37t40 16.5q16 0 17 -29q0 -104 -17 -157q-33 -109 -262 -131l-10 -101q-6 -41 -45 -41 h-35q-23 0 -30 9.5t-7 31.5l10 99q-403 20 -403 432zM387 449q0 -184 119 -218l65 605q-184 -55 -184 -387z" />
<glyph unicode="&#xa3;" horiz-adv-x="1005" d="M-2 82l4 39q2 27 29.5 53.5t58.5 45t59.5 55t32.5 83.5l29 279h-72q-53 0 -53 74q0 166 78 166h72l16 151q45 422 516 422q215 0 215 -84q0 -53 -36 -107.5t-62 -54.5q-2 0 -20.5 4t-48.5 8.5t-60 4.5q-94 0 -144.5 -43t-60.5 -140l-19 -161h246q20 0 26.5 -9.5 t6.5 -31.5q0 -68 -32 -133.5t-87 -65.5h-184l-12 -123q-18 -186 -113 -274h457q51 0 51 -68q0 -23 -2 -35l-2 -35q-6 -102 -74 -102h-743q-43 0 -57.5 18.5t-14.5 63.5z" />
<glyph unicode="&#xa4;" horiz-adv-x="1093" d="M51 279q0 29 31 57l49 45q-35 76 -35 164q0 150 84 264l-49 55q-18 20 -18 45q0 31 28 58l68 61q29 25 55.5 25t46.5 -25l54 -57q102 53 210 53q111 0 205 -55l66 59q27 25 55 25q25 0 47 -25l56 -61q20 -25 20 -45q0 -29 -31 -58l-65 -59q37 -77 37 -166 q0 -137 -78 -254l45 -49q18 -20 18 -45q0 -31 -28 -58l-68 -61q-28 -25 -55 -25q-25 0 -47 25l-43 47q-102 -59 -224 -59q-115 0 -209 55l-47 -43q-28 -25 -55 -25t-47 25l-55 61q-20 25 -21 46zM330 569q0 -76 51 -126t129 -50q88 0 153.5 65.5t65.5 155.5q0 76 -51 126.5 t-127 50.5q-90 0 -155.5 -66t-65.5 -156z" />
<glyph unicode="&#xa5;" horiz-adv-x="1144" d="M53 449q0 104 76 104h272l13 129h-277q-53 0 -53 49q0 104 76 105h180l-262 510q-12 25 -12 43q0 23 21.5 34t45 13t64.5 2h88q100 0 118 -39l205 -438l297 438q27 39 127 39h74q125 0 125 -41q0 -18 -23 -51l-366 -510h170q53 0 53 -50q0 -104 -76 -104h-258l-14 -129 h264q53 0 53 -49q0 -104 -76 -105h-258l-34 -338q-6 -66 -129 -65h-70q-117 0 -117 65l35 338h-279q-53 0 -53 50z" />
<glyph unicode="&#xa6;" horiz-adv-x="512" d="M47 -221l70 667q6 66 110 66h31q53 0 73.5 -15.5t20.5 -50.5l-69 -667q-6 -66 -109 -66h-31q-55 0 -75.5 15.5t-20.5 50.5zM158 834l1 4q1 4 1 6l69 667q6 66 109 66h31q96 0 96 -66l-70 -667q-6 -66 -110 -66h-31q-96 0 -96 56z" />
<glyph unicode="&#xa7;" horiz-adv-x="878" d="M82 96q0 184 45 185q4 0 32.5 -14.5t76 -29t96.5 -14.5q117 0 117 70q0 33 -38 56.5t-91.5 44t-107.5 49t-92 88t-38 143.5q0 158 102 266q-59 55 -59 154q0 164 112.5 260t299.5 96q109 0 199.5 -29.5t90.5 -95.5q0 -33 -39.5 -93.5t-68.5 -60.5q-4 0 -54.5 20.5 t-111.5 20.5q-117 0 -117 -69q0 -33 38 -56.5t91 -44t107.5 -49t92.5 -88t38 -143.5q0 -156 -103 -266q59 -63 60 -156q0 -162 -114 -258t-298 -96q-33 0 -68.5 3t-85 13t-81 34.5t-31.5 59.5zM354 735q0 -53 37 -81.5t111 -55.5q29 49 28 100q0 53 -36.5 83t-110.5 57 q-29 -43 -29 -103z" />
<glyph unicode="&#xa8;" d="M14 1249l15 123q6 66 129 66q117 0 116 -66l-14 -123q-10 -66 -129 -65q-117 -1 -117 65zM383 1249l14 123q6 66 129 66q117 0 117 -66l-14 -123q-10 -66 -129 -65q-117 -1 -117 65z" />
<glyph unicode="&#xa9;" horiz-adv-x="1513" d="M20 717q0 303 215.5 518t518.5 215t518 -215t215 -518t-215 -518t-518 -215t-518.5 215t-215.5 518zM152 717q0 -250 176 -426t426 -176t426 176t176 426t-176 426t-426 176t-426 -176t-176 -426zM403 723q0 408 381 407q84 0 162 -23.5t78 -55.5q0 -27 -26.5 -68 t-47.5 -41q-4 0 -23.5 9.5t-58.5 18.5t-86 9q-199 0 -198 -256q0 -262 196 -262q47 0 90 11t68 23.5t29 12.5q25 0 46 -40t21 -60q0 -47 -84 -72t-170 -25q-193 0 -285 100.5t-92 311.5z" />
<glyph unicode="&#xaa;" horiz-adv-x="653" d="M49 1122q0 145 62.5 235.5t162.5 90.5q63 0 123 -53q8 31 18.5 39t47.5 8h12q59 0 60 -25l-20 -177q-19 -177 -19 -187q0 -31 30 -31q8 0 20 3l11 3q6 0 6 -12q0 -113 -96 -113t-115 76q-53 -78 -139 -78q-76 0 -120 57.5t-44 163.5zM201 1130q-1 -106 69 -106 q43 0 80 59q12 143 25 220q-31 27 -66 26q-109 0 -108 -199z" />
<glyph unicode="&#xab;" horiz-adv-x="964" d="M53 506q0 68 43 112l293 314q29 29 59.5 29t70.5 -32t40 -65q0 -20 -24 -49l-254 -287l194 -286q12 -20 12 -39q0 -31 -46 -70t-85 -39q-28 0 -51 31l-227 313q-25 31 -25 68zM461 506q0 68 43 112l293 314q29 29 59.5 29t70.5 -32t40 -65q0 -20 -25 -49l-254 -287 l195 -286q12 -20 12 -39q0 -31 -46 -70t-85 -39q-31 0 -51 31l-228 313q-25 33 -24 68z" />
<glyph unicode="&#xac;" horiz-adv-x="1146" d="M76 565q0 150 76 150h880q43 0 58.5 -19.5t15.5 -62.5l-45 -420q-6 -66 -88 -66h-41q-43 0 -59.5 15.5t-16.5 50.5l31 283h-758q-53 -1 -53 69z" />
<glyph unicode="&#xad;" d="M53 504q0 150 76 149h418q53 0 53 -69q0 -150 -76 -150h-418q-53 0 -53 70z" />
<glyph unicode="&#xae;" horiz-adv-x="1513" d="M20 717q0 303 215.5 518t518.5 215t518 -215t215 -518t-215 -518t-518 -215t-518.5 215t-215.5 518zM152 717q0 -250 176 -426t426 -176t426 176t176 426t-176 426t-426 176t-426 -176t-176 -426zM494 356v721q0 45 45 45h223q285 0 285 -215q0 -129 -136 -182v-8 q51 -23 84 -101l101 -251q6 -16 6 -23q0 -23 -68 -23h-47q-57 0 -67 25l-91 223q-18 37 -40.5 52.5t-73.5 15.5h-45v-279q0 -37 -70 -37h-37q-69 0 -69 37zM670 786h108q35 0 61.5 30t26.5 69q0 41 -25.5 64.5t-70.5 23.5h-100v-187z" />
<glyph unicode="&#xaf;" d="M37 1284q0 133 76 133h442q53 0 53 -61q0 -133 -76 -133h-442q-53 0 -53 61z" />
<glyph unicode="&#xb0;" horiz-adv-x="706" d="M74 1151q0 119 84 209t217 90q104 0 175 -70.5t71 -173.5q0 -125 -84 -212t-218 -87q-106 0 -175.5 71t-69.5 173zM207 1161q0 -53 36 -90t89 -37q70 0 111.5 47t41.5 115q0 53 -36 90t-87 37q-72 0 -113.5 -48t-41.5 -114z" />
<glyph unicode="&#xb1;" horiz-adv-x="1146" d="M29 70q0 150 75 149h854q53 0 54 -69q0 -150 -76 -150h-854q-53 0 -53 70zM94 711q0 150 76 149h309l33 316q6 61 109 61h28q55 0 75.5 -14.5t20.5 -46.5l-32 -316h313q53 0 53 -74q0 -145 -75 -145h-314l-33 -311q-6 -61 -108 -62h-29q-55 0 -75.5 14.5t-20.5 47.5 l33 311h-310q-53 0 -53 70z" />
<glyph unicode="&#xb2;" d="M20 705q0 12 5 20l342 373q57 61 57 125q0 86 -102 86q-49 0 -95.5 -26t-48.5 -26q-25 0 -43 26t-18 50q0 55 77.5 86t163.5 31q113 0 179.5 -59.5t66.5 -145.5q0 -90 -62.5 -174t-293.5 -330h284q33 0 33 -43q0 -96 -47 -96h-465q-12 0 -22.5 36t-10.5 67z" />
<glyph unicode="&#xb3;" d="M49 668q0 113 29 112q4 0 25.5 -11t59.5 -23.5t83 -12.5q59 0 95 37t36 100q0 102 -129 103h-35q-31 0 -31 43q0 96 47 96h23q63 0 99 32t36 85q0 80 -86 80q-55 0 -100 -18.5t-47 -18.5q-16 0 -33 30.5t-17 57.5q0 43 72 66.5t170 23.5q104 0 164.5 -49t60.5 -135 q0 -70 -36.5 -122t-96.5 -77v-10q119 -45 119 -178q0 -131 -85 -208t-214 -77q-209 0 -209 74z" />
<glyph unicode="&#xb4;" d="M96 1245q0 6 4 15.5t17.5 29t29 42t46 66.5t61.5 91q37 55 180 55q119 0 119 -26q0 -14 -9 -25.5t-73 -71.5q-84 -81 -156 -151q-50 -51 -159 -51q-59 0 -60 26z" />
<glyph unicode="&#xb5;" horiz-adv-x="1159" d="M35 -358l145 1368q6 66 129 65h58q57 0 86.5 -18.5t29.5 -44.5q-70 -651 -69 -678q0 -100 110 -101q96 0 176 111l70 666q6 66 129 65h57q57 0 87 -18.5t30 -44.5q-76 -700 -76 -721q0 -68 62 -68q16 0 36.5 6.5t22.5 6.5q16 0 17 -23q0 -39 -15 -123q-8 -51 -63.5 -78.5 t-116.5 -27.5q-199 0 -238 163q-59 -70 -147 -116.5t-180 -46.5l-37 -340q-6 -66 -129 -66h-57q-57 0 -87 18.5t-30 45.5z" />
<glyph unicode="&#xb6;" horiz-adv-x="1054" d="M125 922q0 233 151.5 372.5t364.5 139.5h436q39 0 37 -41l-4 -45q-2 -41 -45 -41h-74l-170 -1616q-6 -45 -45 -45h-45q-37 0 -37 45l170 1616h-159l-170 -1616q-6 -45 -46 -45h-45q-36 0 -36 45l86 815q-162 18 -265.5 135t-103.5 281z" />
<glyph unicode="&#xb7;" horiz-adv-x="546" d="M143 717q0 63 43 112.5t117 49.5q55 0 92 -37t37 -92q0 -66 -45 -112t-115 -46q-55 0 -92 36t-37 89z" />
<glyph unicode="&#xb8;" d="M92 -328q0 98 29 99q4 0 65.5 -28t116.5 -28q47 0 51 35q0 25 -49 49.5t-49 48.5q0 16 70 172h135l-37 -94q143 -35 143 -151q0 -102 -69.5 -155.5t-194.5 -53.5q-29 0 -58.5 3t-67.5 13t-61.5 34t-23.5 56z" />
<glyph unicode="&#xb9;" horiz-adv-x="444" d="M37 1325q0 57 37 64l303 53q14 0 29.5 -9.5t15.5 -19.5l-82 -774q-4 -39 -76 -39h-33q-68 0 -67 39l67 639l-163 -27q-31 0 -31 74z" />
<glyph unicode="&#xba;" horiz-adv-x="690" d="M92 1122q0 137 68.5 232.5t212.5 95.5q219 0 219 -221q0 -156 -74 -241t-205 -85q-221 0 -221 219zM246 1130q0 -108 82 -108q111 0 110 199q0 111 -80 110q-113 0 -112 -201z" />
<glyph unicode="&#xbb;" horiz-adv-x="964" d="M53 190q0 20 25 50l254 286l-195 287q-12 23 -12 39q0 31 46 70t85 39q31 0 51 -31l228 -314q25 -35 24 -67q0 -68 -43 -113l-293 -313q-29 -29 -59.5 -29t-70.5 32t-40 64zM461 190q0 20 24 50l254 286l-194 287q-12 23 -13 39q0 31 46.5 70t85.5 39q28 0 51 -31 l227 -314q25 -31 25 -67q0 -68 -43 -113l-293 -313q-29 -29 -59.5 -29t-70.5 32t-40 64z" />
<glyph unicode="&#xbc;" horiz-adv-x="1374" d="M94 1325q0 57 37 64l303 53q14 0 29.5 -9.5t15.5 -19.5l-82 -774q-4 -39 -75 -39h-33q-68 0 -68 39l68 639l-164 -27q-31 0 -31 74zM156 18q0 15 14 35l874 1327q35 53 99 54h35q41 0 41 -21q0 -12 -17 -33l-874 -1327q-37 -53 -97 -53h-34q-41 0 -41 18zM668 272 q0 18 2 21l409 524q18 23 76 23h33q68 0 67 -39l-51 -492h47q31 0 31 -43q0 -98 -45 -98h-47l-14 -133q-4 -39 -76 -39h-33q-68 0 -68 39l15 133h-316q-12 0 -21 37t-9 67zM848 309h180l19 174l24 113h-8z" />
<glyph unicode="&#xbd;" horiz-adv-x="1527" d="M94 1325q0 57 37 64l303 53q14 0 29.5 -9.5t15.5 -19.5l-82 -774q-4 -39 -75 -39h-33q-68 0 -68 39l68 639l-164 -27q-31 0 -31 74zM156 18q0 15 14 35l874 1327q35 53 99 54h35q41 0 41 -21q0 -12 -17 -33l-874 -1327q-37 -53 -97 -53h-34q-41 0 -41 18zM827 102 q0 12 4 21l343 373q57 61 57 125q0 86 -103 86q-49 0 -95 -26t-48 -26q-25 0 -43 26t-18 50q0 55 77.5 86t163.5 31q113 0 179.5 -59.5t66.5 -145.5q0 -90 -62.5 -174t-293.5 -330h284q33 0 33 -43q0 -96 -47 -96h-465q-12 0 -22.5 36t-10.5 66z" />
<glyph unicode="&#xbe;" horiz-adv-x="1511" d="M92 668q0 113 29 112q4 0 25.5 -11t59.5 -23.5t83 -12.5q59 0 95 37t36 100q0 102 -129 103h-35q-31 0 -31 43q0 96 47 96h23q63 0 99 32t36 85q0 80 -86 80q-55 0 -100 -18.5t-47 -18.5q-16 0 -33 30.5t-17 57.5q0 43 72 66.5t170 23.5q104 0 164.5 -49t60.5 -135 q0 -70 -36.5 -122t-96.5 -77v-10q119 -45 119 -178q0 -131 -85 -208t-214 -77q-209 0 -209 74zM238 18q0 15 14 35l874 1327q35 53 99 54h35q41 0 40 -21q0 -12 -16 -33l-874 -1327q-37 -53 -97 -53h-34q-41 0 -41 18zM750 272q0 18 2 21l409 524q18 23 76 23h33 q68 0 67 -39l-51 -492h47q31 0 31 -43q0 -98 -45 -98h-47l-15 -133q-4 -39 -75 -39h-33q-68 0 -68 39l15 133h-316q-12 0 -21 37t-9 67zM930 309h180l18 174l25 113h-8z" />
<glyph unicode="&#xbf;" horiz-adv-x="870" d="M-2 -59q0 94 40 174t99.5 134t120.5 101t113.5 101.5t68.5 109.5q14 33 39 44t76 11h47q55 0 74.5 -13t19.5 -46q0 -90 -59 -179t-129 -146.5t-129.5 -124t-59.5 -117.5q0 -98 142 -99q74 0 159 34l85 34q25 0 24 -29q0 -117 -22 -196q-34 -113 -304 -113 q-190 0 -297.5 85t-107.5 235zM446 821l19 189q6 66 131 65h66q68 0 91 -15t23 -50l-18 -189q-6 -66 -131 -65h-66q-115 0 -115 65z" />
<glyph unicode="&#xc0;" horiz-adv-x="1255" d="M-76 37q1 16 13 41l595 1317q18 43 121 43h107q102 0 112 -43l324 -1317q6 -18 6 -35q0 -47 -110 -47h-91q-100 0 -110 43l-60 250h-495l-113 -250q-20 -43 -98 -43h-82q-119 0 -119 41zM453 559h315l-82 365q-8 26 -16 131h-8q-30 -96 -46 -131zM492 1880q0 33 126 33 q141 0 168 -55q20 -43 40 -84t31 -63.5t20.5 -43t13.5 -31t4 -16.5q0 -33 -68 -33q-104 0 -147 51q-47 59 -111 134q-78 93 -77 108z" />
<glyph unicode="&#xc1;" horiz-adv-x="1255" d="M-76 37q1 16 13 41l595 1317q18 43 121 43h107q102 0 112 -43l324 -1317q6 -18 6 -35q0 -47 -110 -47h-91q-100 0 -110 43l-60 250h-495l-113 -250q-20 -43 -98 -43h-82q-119 0 -119 41zM453 559h315l-82 365q-8 26 -16 131h-8q-30 -96 -46 -131zM551 1614q0 6 4 15 t17.5 28.5t28.5 42t46 66.5t62 92q37 55 180 55q119 0 119 -27q0 -14 -9.5 -25.5t-72.5 -71.5q-84 -81 -156 -151q-51 -51 -160 -51q-59 0 -59 27z" />
<glyph unicode="&#xc2;" horiz-adv-x="1255" d="M-76 37q1 16 13 41l595 1317q18 43 121 43h107q102 0 112 -43l324 -1317q6 -18 6 -35q0 -47 -110 -47h-91q-100 0 -110 43l-60 250h-495l-113 -250q-20 -43 -98 -43h-82q-119 0 -119 41zM424 1581q0 15 14 31l156 209q29 39 129 39h22q98 0 121 -39l111 -209q6 -14 6 -25 q0 -27 -39 -26h-45q-100 0 -131 49l-51 82l-64 -80q-39 -51 -141 -51h-49q-39 0 -39 20zM453 559h315l-82 365q-8 26 -16 131h-8q-30 -96 -46 -131z" />
<glyph unicode="&#xc3;" horiz-adv-x="1255" d="M-76 37q1 16 13 41l595 1317q18 43 121 43h107q102 0 112 -43l324 -1317q6 -18 6 -35q0 -47 -110 -47h-91q-100 0 -110 43l-60 250h-495l-113 -250q-20 -43 -98 -43h-82q-119 0 -119 41zM393 1694q0 45 69.5 84t155.5 39q53 0 131 -17.5t111 -17.5q23 0 57.5 11t47.5 11 q31 0 57.5 -29.5t26.5 -62.5q0 -45 -70 -85t-156 -40q-55 0 -134 19.5t-114 19.5q-20 0 -53 -11t-43 -11q-31 0 -58.5 28.5t-27.5 61.5zM453 559h315l-82 365q-8 26 -16 131h-8q-30 -96 -46 -131z" />
<glyph unicode="&#xc4;" horiz-adv-x="1255" d="M-76 37q1 16 13 41l595 1317q18 43 121 43h107q102 0 112 -43l324 -1317q6 -18 6 -35q0 -47 -110 -47h-91q-100 0 -110 43l-60 250h-495l-113 -250q-20 -43 -98 -43h-82q-119 0 -119 41zM406 1618l14 123q6 66 129 65q117 0 117 -65l-15 -123q-10 -66 -129 -66 q-116 0 -116 66zM453 559h315l-82 365q-8 26 -16 131h-8q-30 -96 -46 -131zM774 1618l14 123q6 66 130 65q117 0 116 -65l-14 -123q-10 -66 -129 -66q-117 0 -117 66z" />
<glyph unicode="&#xc5;" horiz-adv-x="1255" d="M-76 37q1 16 13 41l595 1317q18 43 121 43h107q102 0 112 -43l324 -1317q6 -18 6 -35q0 -47 -110 -47h-91q-100 0 -110 43l-60 250h-495l-113 -250q-20 -43 -98 -43h-82q-119 0 -119 41zM453 559h315l-82 365q-8 26 -16 131h-8q-30 -96 -46 -131zM514 1677q0 96 62.5 161 t164.5 65q80 0 131.5 -52.5t51.5 -130.5q0 -96 -61 -160.5t-165 -64.5q-80 0 -132 51t-52 131zM645 1688q0 -29 19.5 -47.5t48.5 -18.5q33 0 57.5 23.5t24.5 56.5q0 29 -19.5 49.5t-48.5 20.5q-33 0 -57.5 -26t-24.5 -58z" />
<glyph unicode="&#xc6;" horiz-adv-x="1873" d="M-72 41q1 14 17 37l792 1300q35 55 94 56h955q53 0 53 -82q0 -186 -78 -187h-655l24 -297h541q53 0 53 -82q0 -186 -77 -186h-490l29 -332h479q53 0 53 -82q0 -186 -78 -186h-684q-33 0 -47 14.5t-18 46.5l-19 228h-497l-150 -250q-29 -43 -98 -43h-76q-123 0 -123 45z M537 559h315l-29 371l17 170h-9l-73 -168z" />
<glyph unicode="&#xc7;" horiz-adv-x="1267" d="M86 565q0 186 40 339t125 279t238.5 196.5t364.5 70.5q145 0 279.5 -40t134.5 -99q0 -43 -58.5 -120t-95.5 -77q-6 0 -40 16.5t-101.5 33t-153.5 16.5q-199 0 -303 -143.5t-104 -426.5q0 -358 307 -358q102 0 197.5 27.5t151.5 56.5t62 29q25 0 25 -31q0 -86 -20 -195 q-14 -66 -117 -101.5t-232 -47.5l-22 -62q143 -35 143 -151q0 -102 -69.5 -155.5t-194.5 -53.5q-29 0 -58.5 3t-67.5 13t-61.5 34t-23.5 56q0 98 29 99q4 0 65.5 -28t116.5 -28q47 0 51 35q0 25 -49 49.5t-49 48.5q0 16 51 134q-287 10 -424 152.5t-137 428.5z" />
<glyph unicode="&#xc8;" horiz-adv-x="1118" d="M82 66l133 1286q8 82 90 82h750q53 0 53 -82q0 -186 -78 -187h-516l-33 -297h459q53 0 53 -82q0 -186 -78 -186h-460l-37 -332h516q53 0 53 -82q0 -186 -78 -186h-753q-41 0 -57.5 14.5t-16.5 51.5zM479 1880q0 33 127 33q141 0 168 -55q20 -43 40 -84t31 -63.5t20 -43 t13.5 -31t4.5 -16.5q0 -33 -68 -33q-104 0 -147 51q-47 59 -111 134q-78 93 -78 108z" />
<glyph unicode="&#xc9;" horiz-adv-x="1118" d="M82 66l133 1286q8 82 90 82h750q53 0 53 -82q0 -186 -78 -187h-516l-33 -297h459q53 0 53 -82q0 -186 -78 -186h-460l-37 -332h516q53 0 53 -82q0 -186 -78 -186h-753q-41 0 -57.5 14.5t-16.5 51.5zM539 1614q0 6 4 15t17 28.5t28.5 42t46.5 66.5t61 92q37 55 181 55 q119 0 118 -27q0 -14 -9 -25.5t-72 -71.5q-84 -81 -156 -151q-51 -51 -160 -51q-59 0 -59 27z" />
<glyph unicode="&#xca;" horiz-adv-x="1118" d="M82 66l133 1286q8 82 90 82h750q53 0 53 -82q0 -186 -78 -187h-516l-33 -297h459q53 0 53 -82q0 -186 -78 -186h-460l-37 -332h516q53 0 53 -82q0 -186 -78 -186h-753q-41 0 -57.5 14.5t-16.5 51.5zM412 1581q0 15 14 31l156 209q29 39 129 39h22q98 0 121 -39l111 -209 q6 -14 6 -25q0 -27 -39 -26h-45q-100 0 -131 49l-51 82l-64 -80q-39 -51 -141 -51h-49q-39 0 -39 20z" />
<glyph unicode="&#xcb;" horiz-adv-x="1118" d="M82 66l133 1286q8 82 90 82h750q53 0 53 -82q0 -186 -78 -187h-516l-33 -297h459q53 0 53 -82q0 -186 -78 -186h-460l-37 -332h516q53 0 53 -82q0 -186 -78 -186h-753q-41 0 -57.5 14.5t-16.5 51.5zM393 1618l15 123q6 66 129 65q117 0 116 -65l-14 -123 q-10 -66 -129 -66q-117 0 -117 66zM762 1618l14 123q6 66 129 65q117 0 117 -65l-14 -123q-10 -66 -129 -66q-117 0 -117 66z" />
<glyph unicode="&#xcc;" horiz-adv-x="577" d="M61 59l138 1313q6 66 129 66h71q117 -1 117 -64l-137 -1313q-6 -66 -129 -65h-72q-117 0 -117 63zM193 1880q0 33 126 33q141 0 168 -55q20 -43 40 -84t31 -63.5t20.5 -43t13.5 -31t4 -16.5q0 -33 -68 -33q-104 0 -147 51q-47 59 -111 134q-78 93 -77 108z" />
<glyph unicode="&#xcd;" horiz-adv-x="577" d="M61 59l138 1313q6 66 129 66h71q117 -1 117 -64l-137 -1313q-6 -66 -129 -65h-72q-117 0 -117 63zM252 1614q0 6 4 15t17.5 28.5t28.5 42t46 66.5t62 92q37 55 180 55q119 0 119 -27q0 -14 -9.5 -25.5t-72.5 -71.5q-84 -81 -156 -151q-51 -51 -160 -51q-59 0 -59 27z" />
<glyph unicode="&#xce;" horiz-adv-x="577" d="M61 59l138 1313q6 66 129 66h71q117 -1 117 -64l-137 -1313q-6 -66 -129 -65h-72q-117 0 -117 63zM125 1581q0 15 14 31l156 209q29 39 129 39h22q98 0 121 -39l111 -209q6 -14 6 -25q0 -27 -39 -26h-45q-100 0 -131 49l-51 82l-64 -80q-39 -51 -141 -51h-49 q-39 0 -39 20z" />
<glyph unicode="&#xcf;" horiz-adv-x="577" d="M61 59l138 1313q6 66 129 66h71q117 -1 117 -64l-137 -1313q-6 -66 -129 -65h-72q-117 0 -117 63zM106 1618l15 123q6 66 129 65q117 0 117 -65l-15 -123q-10 -66 -129 -66q-117 0 -117 66zM475 1618l14 123q6 66 129 65q117 0 117 -65l-14 -123q-10 -66 -129 -66 q-117 0 -117 66z" />
<glyph unicode="&#xd0;" horiz-adv-x="1425" d="M18 676q0 186 78 186h64l51 490q8 82 90 82h459q287 0 437.5 -153t150.5 -439q0 -401 -198 -621.5t-540 -220.5h-458q-41 0 -57.5 15.5t-16.5 52.5l53 526h-59q-53 0 -54 82zM414 268h223q178 0 281.5 142.5t103.5 402.5q0 352 -289 352h-223l-33 -303h121q53 0 53 -82 q0 -186 -78 -186h-124z" />
<glyph unicode="&#xd1;" horiz-adv-x="1472" d="M72 61l137 1311q6 66 129 66h88q100 0 131 -56l451 -829l86 819q6 66 129 66h59q117 0 117 -66l-137 -1311q-6 -66 -129 -65h-78q-100 0 -131 55l-461 840l-86 -830q-6 -66 -129 -65h-60q-116 -1 -116 65zM532 1694q0 45 70 84t156 39q53 0 131 -17.5t110 -17.5 q23 0 58 11t47 11q31 0 57.5 -29.5t26.5 -62.5q0 -45 -69.5 -85t-155.5 -40q-55 0 -134 19.5t-114 19.5q-20 0 -53.5 -11t-43.5 -11q-31 0 -58.5 28.5t-27.5 61.5z" />
<glyph unicode="&#xd2;" horiz-adv-x="1497" d="M84 582q0 170 41 320.5t126 275.5t232.5 198.5t341.5 73.5q285 0 435.5 -154.5t150.5 -447.5q0 -418 -190.5 -641t-548.5 -223q-285 0 -436.5 153.5t-151.5 444.5zM410 610q-1 -358 290 -358q178 0 282.5 148.5t104.5 418.5q0 360 -290 361q-180 0 -283.5 -148.5 t-103.5 -421.5zM641 1880q0 33 127 33q141 0 168 -55q20 -43 39.5 -84t31 -63.5t20.5 -43t13 -31t4 -16.5q1 -33 -67 -33q-104 0 -148 51q-47 59 -110 134q-78 93 -78 108z" />
<glyph unicode="&#xd3;" horiz-adv-x="1497" d="M84 582q0 170 41 320.5t126 275.5t232.5 198.5t341.5 73.5q285 0 435.5 -154.5t150.5 -447.5q0 -418 -190.5 -641t-548.5 -223q-285 0 -436.5 153.5t-151.5 444.5zM410 610q-1 -358 290 -358q178 0 282.5 148.5t104.5 418.5q0 360 -290 361q-180 0 -283.5 -148.5 t-103.5 -421.5zM700 1614q0 6 4.5 15t17.5 28.5t28.5 42t46 66.5t61.5 92q37 55 180 55q119 0 119 -27q0 -14 -9 -25.5t-73 -71.5q-84 -81 -155 -151q-51 -51 -160 -51q-59 0 -60 27z" />
<glyph unicode="&#xd4;" horiz-adv-x="1497" d="M84 582q0 170 41 320.5t126 275.5t232.5 198.5t341.5 73.5q285 0 435.5 -154.5t150.5 -447.5q0 -418 -190.5 -641t-548.5 -223q-285 0 -436.5 153.5t-151.5 444.5zM410 610q-1 -358 290 -358q178 0 282.5 148.5t104.5 418.5q0 360 -290 361q-180 0 -283.5 -148.5 t-103.5 -421.5zM573 1581q1 15 15 31l155 209q29 39 129 39h23q98 0 121 -39l110 -209q6 -14 7 -25q0 -27 -39 -26h-45q-100 0 -131 49l-52 82l-63 -80q-39 -51 -141 -51h-50q-39 0 -39 20z" />
<glyph unicode="&#xd5;" horiz-adv-x="1497" d="M84 582q0 170 41 320.5t126 275.5t232.5 198.5t341.5 73.5q285 0 435.5 -154.5t150.5 -447.5q0 -418 -190.5 -641t-548.5 -223q-285 0 -436.5 153.5t-151.5 444.5zM410 610q-1 -358 290 -358q178 0 282.5 148.5t104.5 418.5q0 360 -290 361q-180 0 -283.5 -148.5 t-103.5 -421.5zM543 1694q0 45 69.5 84t155.5 39q53 0 131 -17.5t111 -17.5q23 0 57.5 11t46.5 11q31 0 57.5 -29.5t26.5 -62.5q0 -45 -69.5 -85t-155.5 -40q-55 0 -134 19.5t-114 19.5q-20 0 -53 -11t-43 -11q-31 0 -58.5 28.5t-27.5 61.5z" />
<glyph unicode="&#xd6;" horiz-adv-x="1497" d="M84 582q0 170 41 320.5t126 275.5t232.5 198.5t341.5 73.5q285 0 435.5 -154.5t150.5 -447.5q0 -418 -190.5 -641t-548.5 -223q-285 0 -436.5 153.5t-151.5 444.5zM410 610q-1 -358 290 -358q178 0 282.5 148.5t104.5 418.5q0 360 -290 361q-180 0 -283.5 -148.5 t-103.5 -421.5zM555 1618l14 123q6 66 129 65q117 0 117 -65l-14 -123q-10 -66 -129 -66q-117 0 -117 66zM924 1618l14 123q6 66 129 65q117 0 117 -65l-15 -123q-10 -66 -129 -66q-116 0 -116 66z" />
<glyph unicode="&#xd7;" horiz-adv-x="1146" d="M47 154q0 20 23 41l331 301l-268 303q-14 14 -14 30q0 35 55 84l10 11q53 47 84 47q18 0 35 -19l268 -301l336 301q18 18 39 19q31 0 72 -47l10 -11q39 -45 39 -73q0 -25 -23 -41l-333 -303l270 -301q14 -18 14 -33q0 -33 -55 -82l-10 -10q-53 -47 -84 -47q-23 0 -35 18 l-270 301l-334 -301q-23 -18 -39 -18q-31 0 -72 47l-10 10q-39 45 -39 74z" />
<glyph unicode="&#xd8;" horiz-adv-x="1497" d="M39 70q0 21 20 41l105 118q-80 139 -80 353q0 170 41 320.5t126 275.5t232.5 198.5t341.5 73.5q211 0 346 -86l82 94q20 25 45 25q20 0 41 -21l33 -28q25 -20 25 -45q0 -20 -21 -41l-82 -93q117 -150 117 -407q0 -418 -190.5 -641t-548.5 -223q-252 0 -400 118l-90 -102 q-23 -25 -45 -25q-20 0 -41 21l-33 29q-25 20 -24 45zM410 610q0 -52 6 -98l549 621q-66 47 -168 47q-180 0 -283.5 -149t-103.5 -421zM483 342q74 -90 217 -90q178 0 282.5 148.5t104.5 418.5q0 100 -24 174z" />
<glyph unicode="&#xd9;" horiz-adv-x="1458" d="M104 412q1 22 97 960q6 66 131 66h69q115 0 115 -66q-92 -883 -92 -903q0 -96 69.5 -156.5t184.5 -60.5q123 0 210 69.5t97 178.5l90 872q6 66 131 66h68q115 0 115 -66l-93 -893q-25 -236 -195.5 -365.5t-451.5 -129.5q-260 0 -402.5 111.5t-142.5 316.5zM600 1880 q0 33 127 33q141 0 168 -55q20 -43 39.5 -84t31 -63.5t20.5 -43t13.5 -31t4.5 -16.5q0 -33 -68 -33q-104 0 -148 51q-47 59 -110 134q-78 93 -78 108z" />
<glyph unicode="&#xda;" horiz-adv-x="1458" d="M104 412q1 22 97 960q6 66 131 66h69q115 0 115 -66q-92 -883 -92 -903q0 -96 69.5 -156.5t184.5 -60.5q123 0 210 69.5t97 178.5l90 872q6 66 131 66h68q115 0 115 -66l-93 -893q-25 -236 -195.5 -365.5t-451.5 -129.5q-260 0 -402.5 111.5t-142.5 316.5zM659 1614 q0 6 4.5 15t17.5 28.5t28.5 42t46 66.5t61.5 92q37 55 180 55q119 0 119 -27q0 -14 -9 -25.5t-73 -71.5q-84 -81 -155 -151q-51 -51 -160 -51q-59 0 -60 27z" />
<glyph unicode="&#xdb;" horiz-adv-x="1458" d="M104 412q1 22 97 960q6 66 131 66h69q115 0 115 -66q-92 -883 -92 -903q0 -96 69.5 -156.5t184.5 -60.5q123 0 210 69.5t97 178.5l90 872q6 66 131 66h68q115 0 115 -66l-93 -893q-25 -236 -195.5 -365.5t-451.5 -129.5q-260 0 -402.5 111.5t-142.5 316.5zM532 1581 q1 15 15 31l155 209q29 39 129 39h23q98 0 121 -39l110 -209q6 -14 7 -25q0 -27 -39 -26h-45q-100 0 -131 49l-52 82l-63 -80q-39 -51 -141 -51h-50q-39 0 -39 20z" />
<glyph unicode="&#xdc;" horiz-adv-x="1458" d="M104 412q1 22 97 960q6 66 131 66h69q115 0 115 -66q-92 -883 -92 -903q0 -96 69.5 -156.5t184.5 -60.5q123 0 210 69.5t97 178.5l90 872q6 66 131 66h68q115 0 115 -66l-93 -893q-25 -236 -195.5 -365.5t-451.5 -129.5q-260 0 -402.5 111.5t-142.5 316.5zM514 1618 l14 123q6 66 129 65q117 0 117 -65l-14 -123q-10 -66 -129 -66q-117 0 -117 66zM883 1618l14 123q6 66 129 65q117 0 117 -65l-15 -123q-10 -66 -129 -66q-116 0 -116 66z" />
<glyph unicode="&#xdd;" horiz-adv-x="1144" d="M66 1389q0 23 21.5 34t45 13t64.5 2h88q100 0 118 -39l205 -438l297 438q27 39 127 39h74q125 0 125 -41q0 -18 -23 -51l-477 -664l-65 -621q-6 -66 -129 -65h-70q-117 -1 -117 65l66 627l-338 658q-12 25 -12 43zM524 1614q0 6 4 15t17.5 28.5t29 42t46 66.5t61.5 92 q37 55 180 55q119 0 119 -27q0 -14 -9 -25.5t-73 -71.5q-84 -81 -156 -151q-50 -51 -159 -51q-59 0 -60 27z" />
<glyph unicode="&#xde;" horiz-adv-x="1161" d="M70 61l137 1311q6 66 129 66h70q117 0 116 -66l-16 -158h211q59 0 112.5 -7t117 -30.5t108.5 -63.5t75.5 -111.5t30.5 -165.5q0 -129 -44 -228.5t-104.5 -153t-138 -86t-132 -42t-99.5 -9.5h-231l-27 -256q-6 -66 -129 -65h-70q-116 -1 -116 65zM440 588h197 q78 0 138.5 46t60.5 163q0 82 -48.5 115.5t-113.5 33.5h-197z" />
<glyph unicode="&#xdf;" horiz-adv-x="1134" d="M47 61l100 943q20 203 165 324.5t352 121.5q184 0 299.5 -87t115.5 -237q0 -115 -58 -203.5t-165 -129.5v-9q205 -82 205 -295q0 -211 -144 -350t-382 -139h-48q-53 0 -53 74q0 166 78 166h31q94 0 152.5 61t58.5 160q0 82 -50.5 129t-150.5 47q-53 0 -53 74 q0 166 77.5 166t133 53t55.5 131q0 53 -32 93t-101 40q-74 0 -123 -46t-57 -120l-103 -967q-6 -66 -129 -65h-57q-117 0 -117 65z" />
<glyph unicode="&#xe0;" horiz-adv-x="1116" d="M49 426q0 295 127 477t328 182q133 0 248 -108q18 61 38.5 77.5t94.5 18.5h24q119 0 119 -51l-38 -356q-38 -356 -38 -377q0 -66 62 -66q16 0 36.5 6.5t22.5 6.5q16 0 17 -23q0 -39 -15 -123q-8 -51 -63.5 -78.5t-116.5 -27.5q-195 0 -236 153q-47 -70 -119.5 -112.5 t-158.5 -42.5q-152 0 -242 115.5t-90 328.5zM356 444q1 -215 140 -215q84 0 159 119q25 279 29 308.5t25 134.5q-63 55 -136 55q-104 0 -160.5 -103.5t-56.5 -298.5zM399 1511q0 33 127 33q141 0 168 -55q20 -43 40 -84t31 -63.5t20.5 -43t13.5 -31t4 -16.5q0 -32 -68 -32 q-104 0 -147 51q-47 59 -111 134q-78 93 -78 107z" />
<glyph unicode="&#xe1;" horiz-adv-x="1116" d="M49 426q0 295 127 477t328 182q133 0 248 -108q18 61 38.5 77.5t94.5 18.5h24q119 0 119 -51l-38 -356q-38 -356 -38 -377q0 -66 62 -66q16 0 36.5 6.5t22.5 6.5q16 0 17 -23q0 -39 -15 -123q-8 -51 -63.5 -78.5t-116.5 -27.5q-195 0 -236 153q-47 -70 -119.5 -112.5 t-158.5 -42.5q-152 0 -242 115.5t-90 328.5zM356 444q1 -215 140 -215q84 0 159 119q25 279 29 308.5t25 134.5q-63 55 -136 55q-104 0 -160.5 -103.5t-56.5 -298.5zM459 1245q0 6 4 15.5t17.5 29t28.5 42t46 66.5t61 91q37 55 181 55q119 0 118 -26q0 -14 -9 -25.5 t-72 -71.5q-84 -81 -156 -151q-51 -51 -160 -51q-59 0 -59 26z" />
<glyph unicode="&#xe2;" horiz-adv-x="1116" d="M49 426q0 295 127 477t328 182q133 0 248 -108q18 61 38.5 77.5t94.5 18.5h24q119 0 119 -51l-38 -356q-38 -356 -38 -377q0 -66 62 -66q16 0 36.5 6.5t22.5 6.5q16 0 17 -23q0 -39 -15 -123q-8 -51 -63.5 -78.5t-116.5 -27.5q-195 0 -236 153q-47 -70 -119.5 -112.5 t-158.5 -42.5q-152 0 -242 115.5t-90 328.5zM332 1212q0 15 14 31l156 209q29 39 129 39h22q98 0 121 -39l111 -209q6 -14 6 -24q0 -27 -39 -27h-45q-100 0 -131 49l-51 82l-64 -80q-39 -51 -141 -51h-49q-39 0 -39 20zM356 444q1 -215 140 -215q84 0 159 119 q25 279 29 308.5t25 134.5q-63 55 -136 55q-104 0 -160.5 -103.5t-56.5 -298.5z" />
<glyph unicode="&#xe3;" horiz-adv-x="1116" d="M49 426q0 295 127 477t328 182q133 0 248 -108q18 61 38.5 77.5t94.5 18.5h24q119 0 119 -51l-38 -356q-38 -356 -38 -377q0 -66 62 -66q16 0 36.5 6.5t22.5 6.5q16 0 17 -23q0 -39 -15 -123q-8 -51 -63.5 -78.5t-116.5 -27.5q-195 0 -236 153q-47 -70 -119.5 -112.5 t-158.5 -42.5q-152 0 -242 115.5t-90 328.5zM301 1325q0 45 69.5 84t155.5 39q53 0 131 -17.5t111 -17.5q23 0 57.5 11.5t46.5 11.5q31 0 57.5 -30t26.5 -63q0 -45 -69.5 -84.5t-155.5 -39.5q-55 0 -134 19t-114 19q-20 0 -53 -11t-43 -11q-31 0 -58.5 28.5t-27.5 61.5z M356 444q1 -215 140 -215q84 0 159 119q25 279 29 308.5t25 134.5q-63 55 -136 55q-104 0 -160.5 -103.5t-56.5 -298.5z" />
<glyph unicode="&#xe4;" horiz-adv-x="1116" d="M49 426q0 295 127 477t328 182q133 0 248 -108q18 61 38.5 77.5t94.5 18.5h24q119 0 119 -51l-38 -356q-38 -356 -38 -377q0 -66 62 -66q16 0 36.5 6.5t22.5 6.5q16 0 17 -23q0 -39 -15 -123q-8 -51 -63.5 -78.5t-116.5 -27.5q-195 0 -236 153q-47 -70 -119.5 -112.5 t-158.5 -42.5q-152 0 -242 115.5t-90 328.5zM313 1249l15 123q6 66 129 66q117 0 116 -66l-14 -123q-10 -66 -129 -65q-117 -1 -117 65zM356 444q1 -215 140 -215q84 0 159 119q25 279 29 308.5t25 134.5q-63 55 -136 55q-104 0 -160.5 -103.5t-56.5 -298.5zM682 1249 l14 123q6 66 129 66q117 0 117 -66l-14 -123q-10 -66 -129 -65q-117 -1 -117 65z" />
<glyph unicode="&#xe5;" horiz-adv-x="1116" d="M49 426q0 295 127 477t328 182q133 0 248 -108q18 61 38.5 77.5t94.5 18.5h24q119 0 119 -51l-38 -356q-38 -356 -38 -377q0 -66 62 -66q16 0 36.5 6.5t22.5 6.5q16 0 17 -23q0 -39 -15 -123q-8 -51 -63.5 -78.5t-116.5 -27.5q-195 0 -236 153q-47 -70 -119.5 -112.5 t-158.5 -42.5q-152 0 -242 115.5t-90 328.5zM356 444q1 -215 140 -215q84 0 159 119q25 279 29 308.5t25 134.5q-63 55 -136 55q-104 0 -160.5 -103.5t-56.5 -298.5zM422 1309q0 96 62.5 160.5t164.5 64.5q80 0 131 -52t51 -130q0 -96 -60.5 -161t-164.5 -65 q-82 0 -133 51.5t-51 131.5zM553 1319q0 -29 19.5 -47.5t48.5 -18.5q33 0 57 23.5t24 56.5q0 29 -19 49.5t-48 20.5q-33 0 -57.5 -25.5t-24.5 -58.5z" />
<glyph unicode="&#xe6;" horiz-adv-x="1697" d="M51 250q0 59 12.5 109.5t51.5 105.5t104.5 93t181 62.5t271.5 26.5q18 86 49 150q-41 51 -178 51q-55 0 -116.5 -16.5t-103.5 -33t-51 -16.5q-29 0 -58.5 58.5t-29.5 97.5q0 55 126 102t280 47q217 0 323 -75q125 76 301 75q117 0 201 -30.5t124 -79.5t56.5 -94t16.5 -92 q0 -188 -133 -281.5t-308 -93.5q-113 0 -213 14q6 -119 61 -163t155 -44q72 0 145.5 22.5t119.5 45t52 22.5q16 0 16 -28q0 -2 -2 -35t-6 -71t-8 -52q-23 -76 -133.5 -109.5t-222.5 -33.5q-258 0 -381 135q-63 -51 -167 -93t-220 -42q-154 0 -235 70.5t-81 195.5zM356 301 q0 -35 25 -56.5t70 -21.5q55 0 115.5 23.5t95.5 64.5q-10 66 -11 123v25q-295 -4 -295 -158zM973 618h98q131 0 188.5 40t57.5 94q0 96 -123 96q-170 0 -221 -230z" />
<glyph unicode="&#xe7;" horiz-adv-x="993" d="M68 418q0 141 29.5 257t94 211t179 148t270.5 53q111 0 216.5 -31.5t107.5 -109.5q0 -33 -41 -94t-72 -61q-8 0 -33 14q-80 43 -168 43q-270 0 -270 -399q0 -115 46 -170.5t144 -55.5q123 0 254 66q33 16 43 16q14 0 15 -29q0 -102 -17 -157q-35 -96 -229 -125l-21 -57 q143 -35 144 -152q0 -102 -69.5 -155.5t-194.5 -53.5q-29 0 -58.5 3t-67.5 13.5t-61.5 34t-23.5 56.5q0 98 28 98q4 0 65.5 -27.5t117.5 -27.5q47 0 51 34q0 25 -49 49.5t-49 49.5q0 18 47 127q-428 14 -428 432z" />
<glyph unicode="&#xe8;" horiz-adv-x="1103" d="M68 434q0 334 157.5 493.5t405.5 159.5q117 0 200.5 -30.5t123.5 -79.5t56.5 -94t16.5 -92q0 -188 -133 -281.5t-307 -93.5q-113 0 -213 14q6 -119 60.5 -163t154.5 -44q72 0 145.5 22.5t119.5 45t52 22.5q16 0 17 -28q0 -2 -2 -35t-6.5 -71t-8.5 -52 q-23 -76 -133 -109.5t-223 -33.5q-244 0 -363.5 118.5t-119.5 331.5zM389 618h98q131 0 188.5 40t57.5 94q0 96 -123 96q-170 0 -221 -230zM440 1511q0 33 127 33q141 0 168 -55q20 -43 40 -84t31 -63.5t20.5 -43t13.5 -31t4 -16.5q0 -32 -68 -32q-104 0 -147 51 q-47 59 -111 134q-78 93 -78 107z" />
<glyph unicode="&#xe9;" horiz-adv-x="1103" d="M68 434q0 334 157.5 493.5t405.5 159.5q117 0 200.5 -30.5t123.5 -79.5t56.5 -94t16.5 -92q0 -188 -133 -281.5t-307 -93.5q-113 0 -213 14q6 -119 60.5 -163t154.5 -44q72 0 145.5 22.5t119.5 45t52 22.5q16 0 17 -28q0 -2 -2 -35t-6.5 -71t-8.5 -52 q-23 -76 -133 -109.5t-223 -33.5q-244 0 -363.5 118.5t-119.5 331.5zM389 618h98q131 0 188.5 40t57.5 94q0 96 -123 96q-170 0 -221 -230zM500 1245q0 6 4 15.5t17.5 29t28.5 42t46 66.5t61 91q37 55 181 55q119 0 118 -26q0 -14 -9 -25.5t-72 -71.5q-84 -81 -156 -151 q-51 -51 -160 -51q-59 0 -59 26z" />
<glyph unicode="&#xea;" horiz-adv-x="1103" d="M68 434q0 334 157.5 493.5t405.5 159.5q117 0 200.5 -30.5t123.5 -79.5t56.5 -94t16.5 -92q0 -188 -133 -281.5t-307 -93.5q-113 0 -213 14q6 -119 60.5 -163t154.5 -44q72 0 145.5 22.5t119.5 45t52 22.5q16 0 17 -28q0 -2 -2 -35t-6.5 -71t-8.5 -52 q-23 -76 -133 -109.5t-223 -33.5q-244 0 -363.5 118.5t-119.5 331.5zM373 1212q0 15 14 31l156 209q29 39 129 39h22q98 0 121 -39l111 -209q6 -14 6 -24q0 -27 -39 -27h-45q-100 0 -131 49l-51 82l-64 -80q-39 -51 -141 -51h-49q-39 0 -39 20zM389 618h98q131 0 188.5 40 t57.5 94q0 96 -123 96q-170 0 -221 -230z" />
<glyph unicode="&#xeb;" horiz-adv-x="1103" d="M68 434q0 334 157.5 493.5t405.5 159.5q117 0 200.5 -30.5t123.5 -79.5t56.5 -94t16.5 -92q0 -188 -133 -281.5t-307 -93.5q-113 0 -213 14q6 -119 60.5 -163t154.5 -44q72 0 145.5 22.5t119.5 45t52 22.5q16 0 17 -28q0 -2 -2 -35t-6.5 -71t-8.5 -52 q-23 -76 -133 -109.5t-223 -33.5q-244 0 -363.5 118.5t-119.5 331.5zM354 1249l15 123q6 66 129 66q117 0 116 -66l-14 -123q-10 -66 -129 -65q-117 -1 -117 65zM389 618h98q131 0 188.5 40t57.5 94q0 96 -123 96q-170 0 -221 -230zM723 1249l14 123q6 66 129 66 q117 0 117 -66l-14 -123q-10 -66 -129 -65q-117 -1 -117 65z" />
<glyph unicode="&#xec;" horiz-adv-x="542" d="M59 244l78 766q6 66 129 65h58q57 0 86.5 -18.5t29.5 -44.5q-76 -700 -75 -721q0 -68 61 -68q16 0 36.5 6.5t22.5 6.5q16 0 17 -23q0 -39 -15 -123q-8 -51 -63 -78.5t-117 -27.5q-248 0 -248 260zM104 1511q0 33 127 33q141 0 168 -55q20 -43 40 -84t31 -63.5t20.5 -43 t13.5 -31t4 -16.5q0 -32 -68 -32q-104 0 -147 51q-47 59 -111 134q-78 93 -78 107z" />
<glyph unicode="&#xed;" horiz-adv-x="542" d="M59 244l78 766q6 66 129 65h58q57 0 86.5 -18.5t29.5 -44.5q-76 -700 -75 -721q0 -68 61 -68q16 0 36.5 6.5t22.5 6.5q16 0 17 -23q0 -39 -15 -123q-8 -51 -63 -78.5t-117 -27.5q-248 0 -248 260zM164 1245q0 6 4 15.5t17.5 29t28.5 42t46 66.5t62 91q37 55 180 55 q119 0 119 -26q0 -14 -9.5 -25.5t-72.5 -71.5q-84 -81 -156 -151q-51 -51 -160 -51q-59 0 -59 26z" />
<glyph unicode="&#xee;" horiz-adv-x="542" d="M37 1212q0 15 14 31l156 209q29 39 129 39h22q98 0 121 -39l111 -209q6 -14 6 -24q0 -27 -39 -27h-45q-100 0 -131 49l-51 82l-64 -80q-39 -51 -141 -51h-49q-39 0 -39 20zM59 244l78 766q6 66 129 65h58q57 0 86.5 -18.5t29.5 -44.5q-76 -700 -75 -721q0 -68 61 -68 q16 0 36.5 6.5t22.5 6.5q16 0 17 -23q0 -39 -15 -123q-8 -51 -63 -78.5t-117 -27.5q-248 0 -248 260z" />
<glyph unicode="&#xef;" horiz-adv-x="542" d="M18 1249l15 123q6 66 129 66q117 0 117 -66l-15 -123q-10 -66 -129 -65q-117 -1 -117 65zM59 244l78 766q6 66 129 65h58q57 0 86.5 -18.5t29.5 -44.5q-76 -700 -75 -721q0 -68 61 -68q16 0 36.5 6.5t22.5 6.5q16 0 17 -23q0 -39 -15 -123q-8 -51 -63 -78.5t-117 -27.5 q-248 0 -248 260zM387 1249l14 123q6 66 129 66q117 0 117 -66l-14 -123q-10 -66 -129 -65q-117 -1 -117 65z" />
<glyph unicode="&#xf0;" horiz-adv-x="1165" d="M82 436q0 311 148.5 481t412.5 170q39 0 105 -8q-18 55 -54 127q-115 -16 -127 -16q-29 0 -49 23.5t-20 54.5q0 33 47 41l88 12q-4 6 -19.5 28.5t-25.5 41t-10 32.5q0 25 30 27l127 14q35 0 62.5 -15t44 -33.5t37.5 -51.5l6 -10q137 18 141 18q25 0 45.5 -25.5 t20.5 -54.5q0 -33 -45 -39l-97 -12q137 -252 137 -582q0 -326 -145 -500.5t-414 -174.5q-219 0 -332.5 115.5t-113.5 336.5zM389 449q0 -226 164 -226q106 0 165.5 103.5t59.5 296.5q0 225 -160 225q-109 0 -169 -102.5t-60 -296.5z" />
<glyph unicode="&#xf1;" horiz-adv-x="1140" d="M45 59l70 672q8 80 8 146q0 27 -2 64.5t-2 49.5q0 33 67.5 53.5t169.5 20.5q39 0 50.5 -34t15.5 -105q53 66 142 113.5t179 47.5q270 0 271 -260q0 -25 -25.5 -272.5t-25.5 -263.5q0 -68 61 -68q16 0 36.5 6.5t22.5 6.5q16 0 17 -23q0 -39 -15 -123q-8 -51 -63 -78.5 t-117 -27.5q-248 0 -248 260q0 27 24 253t24 238q0 102 -111 103q-100 0 -180 -125l-66 -652q-6 -66 -129 -65h-57q-57 0 -87 18.5t-30 44.5zM324 1325q0 45 69.5 84t155.5 39q53 0 131 -17.5t111 -17.5q23 0 57.5 11.5t46.5 11.5q31 0 57.5 -30t26.5 -63q0 -45 -69.5 -84.5 t-155.5 -39.5q-55 0 -134 19t-114 19q-20 0 -53 -11t-43 -11q-31 0 -58.5 28.5t-27.5 61.5z" />
<glyph unicode="&#xf2;" horiz-adv-x="1165" d="M68 432q0 133 28.5 244.5t90 207t175 149.5t267.5 54q219 0 331.5 -114.5t112.5 -335.5q0 -311 -149.5 -482t-411.5 -171q-219 0 -331.5 114.5t-112.5 333.5zM375 446q0 -223 162 -223q106 0 166.5 103.5t60.5 296.5q0 225 -160 225q-109 0 -169 -103.5t-60 -298.5z M432 1511q0 33 127 33q141 0 168 -55q20 -43 39.5 -84t31 -63.5t20.5 -43t13.5 -31t4.5 -16.5q0 -32 -68 -32q-104 0 -147 51q-47 59 -111 134q-78 93 -78 107z" />
<glyph unicode="&#xf3;" horiz-adv-x="1165" d="M68 432q0 133 28.5 244.5t90 207t175 149.5t267.5 54q219 0 331.5 -114.5t112.5 -335.5q0 -311 -149.5 -482t-411.5 -171q-219 0 -331.5 114.5t-112.5 333.5zM375 446q0 -223 162 -223q106 0 166.5 103.5t60.5 296.5q0 225 -160 225q-109 0 -169 -103.5t-60 -298.5z M492 1245q0 6 4 15.5t17 29t28.5 42t46 66.5t61.5 91q37 55 180 55q119 0 119 -26q0 -14 -9 -25.5t-73 -71.5q-84 -81 -155 -151q-51 -51 -160 -51q-59 0 -59 26z" />
<glyph unicode="&#xf4;" horiz-adv-x="1165" d="M68 432q0 133 28.5 244.5t90 207t175 149.5t267.5 54q219 0 331.5 -114.5t112.5 -335.5q0 -311 -149.5 -482t-411.5 -171q-219 0 -331.5 114.5t-112.5 333.5zM365 1212q0 15 14 31l156 209q29 39 129 39h22q98 0 121 -39l111 -209q6 -14 6 -24q0 -27 -39 -27h-45 q-100 0 -131 49l-52 82l-63 -80q-39 -51 -141 -51h-50q-39 0 -38 20zM375 446q0 -223 162 -223q106 0 166.5 103.5t60.5 296.5q0 225 -160 225q-109 0 -169 -103.5t-60 -298.5z" />
<glyph unicode="&#xf5;" horiz-adv-x="1165" d="M68 432q0 133 28.5 244.5t90 207t175 149.5t267.5 54q219 0 331.5 -114.5t112.5 -335.5q0 -311 -149.5 -482t-411.5 -171q-219 0 -331.5 114.5t-112.5 333.5zM334 1325q0 45 69.5 84t155.5 39q53 0 131 -17.5t111 -17.5q23 0 57.5 11.5t46.5 11.5q31 0 57.5 -30t26.5 -63 q0 -45 -69.5 -84.5t-155.5 -39.5q-55 0 -134 19t-114 19q-20 0 -53 -11t-43 -11q-31 0 -58.5 28.5t-27.5 61.5zM375 446q0 -223 162 -223q106 0 166.5 103.5t60.5 296.5q0 225 -160 225q-109 0 -169 -103.5t-60 -298.5z" />
<glyph unicode="&#xf6;" horiz-adv-x="1165" d="M68 432q0 133 28.5 244.5t90 207t175 149.5t267.5 54q219 0 331.5 -114.5t112.5 -335.5q0 -311 -149.5 -482t-411.5 -171q-219 0 -331.5 114.5t-112.5 333.5zM346 1249l14 123q6 66 129 66q117 0 117 -66l-14 -123q-10 -66 -129 -65q-117 -1 -117 65zM375 446 q0 -223 162 -223q106 0 166.5 103.5t60.5 296.5q0 225 -160 225q-109 0 -169 -103.5t-60 -298.5zM715 1249l14 123q6 66 129 66q117 0 117 -66l-14 -123q-10 -66 -130 -65q-116 -1 -116 65z" />
<glyph unicode="&#xf7;" horiz-adv-x="1146" d="M59 422q0 150 76 149h903q53 0 54 -69q0 -150 -76 -150h-903q-54 0 -54 70zM395 61l15 146q6 66 131 65h22q115 0 115 -65l-14 -146q-6 -66 -129 -65h-23q-117 -1 -117 65zM465 717l14 145q6 66 129 66h23q117 0 117 -66l-15 -145q-6 -66 -131 -66h-22q-68 0 -91.5 15.5 t-23.5 50.5z" />
<glyph unicode="&#xf8;" horiz-adv-x="1165" d="M78 68q0 20 20 43l45 51q-63 106 -63 270q0 133 28.5 244.5t90 207t175 149.5t267.5 54q145 0 250 -55l49 58q23 27 45 26q16 0 43 -20l29 -25q27 -27 26.5 -45t-20.5 -43l-51 -59q74 -111 73 -287q0 -311 -149.5 -482t-411.5 -171q-166 0 -266 63l-37 -43 q-25 -27 -45 -27q-23 0 -43 21l-29 25q-27 20 -26 45zM387 446l322 375q-38 27 -93 27q-109 0 -169 -103.5t-60 -298.5zM442 260q37 -37 107 -37q106 0 166.5 103.5t60.5 296.5v26z" />
<glyph unicode="&#xf9;" horiz-adv-x="1140" d="M57 244q0 33 18.5 224t38.5 367l19 175q6 66 129 65h57q57 0 87 -18.5t30 -44.5q-70 -651 -69 -678q0 -100 110 -101q96 0 176 111l70 666q6 66 129 65h57q57 0 87 -18.5t30 -44.5q-76 -700 -76 -721q0 -68 62 -68q16 0 36.5 6.5t22.5 6.5q16 0 16 -23q0 -39 -14 -123 q-8 -51 -63.5 -78.5t-116.5 -27.5q-199 0 -238 163q-59 -70 -147 -116.5t-180 -46.5q-139 0 -205 63.5t-66 196.5zM381 1511q0 33 127 33q141 0 168 -55q20 -43 39.5 -84t31 -63.5t20.5 -43t13 -31t4 -16.5q1 -32 -67 -32q-104 0 -148 51q-47 59 -110 134q-78 93 -78 107z " />
<glyph unicode="&#xfa;" horiz-adv-x="1140" d="M57 244q0 33 18.5 224t38.5 367l19 175q6 66 129 65h57q57 0 87 -18.5t30 -44.5q-70 -651 -69 -678q0 -100 110 -101q96 0 176 111l70 666q6 66 129 65h57q57 0 87 -18.5t30 -44.5q-76 -700 -76 -721q0 -68 62 -68q16 0 36.5 6.5t22.5 6.5q16 0 16 -23q0 -39 -14 -123 q-8 -51 -63.5 -78.5t-116.5 -27.5q-199 0 -238 163q-59 -70 -147 -116.5t-180 -46.5q-139 0 -205 63.5t-66 196.5zM440 1245q0 6 4.5 15.5t17.5 29t28.5 42t46 66.5t61.5 91q37 55 180 55q119 0 119 -26q0 -14 -9 -25.5t-73 -71.5q-84 -81 -156 -151q-50 -51 -159 -51 q-59 0 -60 26z" />
<glyph unicode="&#xfb;" horiz-adv-x="1140" d="M57 244q0 33 18.5 224t38.5 367l19 175q6 66 129 65h57q57 0 87 -18.5t30 -44.5q-70 -651 -69 -678q0 -100 110 -101q96 0 176 111l70 666q6 66 129 65h57q57 0 87 -18.5t30 -44.5q-76 -700 -76 -721q0 -68 62 -68q16 0 36.5 6.5t22.5 6.5q16 0 16 -23q0 -39 -14 -123 q-8 -51 -63.5 -78.5t-116.5 -27.5q-199 0 -238 163q-59 -70 -147 -116.5t-180 -46.5q-139 0 -205 63.5t-66 196.5zM313 1212q1 15 15 31l155 209q29 39 129 39h23q98 0 121 -39l110 -209q6 -14 6 -24q0 -27 -38 -27h-46q-100 0 -131 49l-51 82l-63 -80q-39 -51 -142 -51h-49 q-39 0 -39 20z" />
<glyph unicode="&#xfc;" horiz-adv-x="1140" d="M57 244q0 33 18.5 224t38.5 367l19 175q6 66 129 65h57q57 0 87 -18.5t30 -44.5q-70 -651 -69 -678q0 -100 110 -101q96 0 176 111l70 666q6 66 129 65h57q57 0 87 -18.5t30 -44.5q-76 -700 -76 -721q0 -68 62 -68q16 0 36.5 6.5t22.5 6.5q16 0 16 -23q0 -39 -14 -123 q-8 -51 -63.5 -78.5t-116.5 -27.5q-199 0 -238 163q-59 -70 -147 -116.5t-180 -46.5q-139 0 -205 63.5t-66 196.5zM295 1249l14 123q6 66 129 66q117 0 117 -66l-14 -123q-10 -66 -129 -65q-117 -1 -117 65zM664 1249l14 123q6 66 129 66q117 0 117 -66l-15 -123 q-10 -66 -129 -65q-116 -1 -116 65z" />
<glyph unicode="&#xfd;" horiz-adv-x="985" d="M55 1022q0 53 131 53h66q100 0 110 -43l80 -379q8 -39 33 -247h8q55 182 82 247l162 379q18 43 119 43h49q119 0 119 -43q0 -4 -10 -39l-615 -1372q-18 -43 -119 -43h-34q-119 0 -119 41q0 16 12 39l166 342q-240 1012 -240 1022zM408 1245q0 6 4 15.5t17 29t28.5 42 t46.5 66.5t61 91q37 55 180 55q119 0 119 -26q0 -14 -9 -25.5t-72 -71.5q-84 -81 -156 -151q-51 -51 -160 -51q-59 0 -59 26z" />
<glyph unicode="&#xfe;" horiz-adv-x="1167" d="M80 -358l194 1837q6 66 129 65h58q57 0 87 -18.5t30 -44.5l-54 -508q100 115 246 114q152 0 242 -115.5t90 -328.5q0 -295 -127 -477t-328 -182q-121 0 -219 82l-45 -422q-6 -66 -129 -66h-57q-57 0 -87 18.5t-30 45.5zM449 270q57 -47 129 -47q104 0 160.5 103.5 t56.5 298.5q-1 215 -140 215q-84 0 -157 -115z" />
<glyph unicode="&#xff;" horiz-adv-x="985" d="M55 1022q0 53 131 53h66q100 0 110 -43l80 -379q8 -39 33 -247h8q55 182 82 247l162 379q18 43 119 43h49q119 0 119 -43q0 -4 -10 -39l-615 -1372q-18 -43 -119 -43h-34q-119 0 -119 41q0 16 12 39l166 342q-240 1012 -240 1022zM262 1249l14 123q6 66 130 66 q117 0 116 -66l-14 -123q-10 -66 -129 -65q-117 -1 -117 65zM631 1249l14 123q6 66 129 66q117 0 117 -66l-14 -123q-10 -66 -129 -65q-117 -1 -117 65z" />
<glyph unicode="&#x152;" horiz-adv-x="2091" d="M84 578q0 416 193.5 644t527.5 228q207 0 344 -94q8 78 90 78h750q53 0 53 -82q0 -186 -78 -187h-516l-33 -297h459q53 0 53 -82q0 -186 -78 -186h-460l-37 -332h516q53 0 53 -82q0 -186 -78 -186h-753q-41 0 -57.5 14.5t-16.5 51.5v8q-160 -90 -365 -90 q-276 0 -421.5 152.5t-145.5 441.5zM410 610q-1 -358 290 -358q178 0 282.5 148.5t104.5 418.5q0 360 -290 361q-180 0 -283.5 -148.5t-103.5 -421.5z" />
<glyph unicode="&#x153;" horiz-adv-x="1783" d="M80 432q0 133 28.5 244.5t90 207t175 149.5t267.5 54q213 0 330 -120q150 121 358 120q117 0 201 -30.5t124 -79.5t56 -94t16 -92q0 -188 -133 -281.5t-307 -93.5q-113 0 -213 14q6 -119 60.5 -163t154.5 -44q72 0 145.5 22.5t119.5 45t53 22.5q16 0 16 -28q0 -2 -2 -35 t-6 -71t-8 -52q-23 -76 -133.5 -109.5t-223.5 -33.5q-233 0 -364 125q-152 -125 -361 -125q-219 0 -331.5 114.5t-112.5 333.5zM387 446q0 -223 162 -223q106 0 166.5 103.5t60.5 296.5q0 225 -160 225q-109 0 -169 -103.5t-60 -298.5zM1087 618h99q131 0 188.5 40t57.5 94 q0 96 -123 96q-170 0 -222 -230z" />
<glyph unicode="&#x178;" horiz-adv-x="1144" d="M66 1389q0 23 21.5 34t45 13t64.5 2h88q100 0 118 -39l205 -438l297 438q27 39 127 39h74q125 0 125 -41q0 -18 -23 -51l-477 -664l-65 -621q-6 -66 -129 -65h-70q-117 -1 -117 65l66 627l-338 658q-12 25 -12 43zM379 1618l14 123q6 66 129 65q117 0 117 -65l-14 -123 q-10 -66 -129 -66q-117 0 -117 66zM748 1618l14 123q6 66 129 65q117 0 117 -65l-15 -123q-10 -66 -129 -66q-116 0 -116 66z" />
<glyph unicode="&#x2c6;" d="M25 1212q0 15 14 31l156 209q29 39 129 39h22q98 0 121 -39l111 -209q6 -14 6 -24q0 -27 -39 -27h-45q-100 0 -131 49l-52 82l-63 -80q-39 -51 -141 -51h-50q-39 0 -38 20z" />
<glyph unicode="&#x2dc;" horiz-adv-x="747" d="M47 1325q0 45 69.5 84t155.5 39q53 0 131 -17.5t111 -17.5q23 0 57.5 11.5t46.5 11.5q31 0 57.5 -30t26.5 -63q0 -45 -69.5 -84.5t-155.5 -39.5q-55 0 -134 19t-114 19q-20 0 -53 -11t-43 -11q-31 0 -58.5 28.5t-27.5 61.5z" />
<glyph unicode="&#x2000;" horiz-adv-x="956" />
<glyph unicode="&#x2001;" horiz-adv-x="1913" />
<glyph unicode="&#x2002;" horiz-adv-x="956" />
<glyph unicode="&#x2003;" horiz-adv-x="1913" />
<glyph unicode="&#x2004;" horiz-adv-x="637" />
<glyph unicode="&#x2005;" horiz-adv-x="478" />
<glyph unicode="&#x2006;" horiz-adv-x="318" />
<glyph unicode="&#x2007;" horiz-adv-x="318" />
<glyph unicode="&#x2008;" horiz-adv-x="239" />
<glyph unicode="&#x2009;" horiz-adv-x="382" />
<glyph unicode="&#x200a;" horiz-adv-x="106" />
<glyph unicode="&#x2010;" d="M53 504q0 150 76 149h418q53 0 53 -69q0 -150 -76 -150h-418q-53 0 -53 70z" />
<glyph unicode="&#x2011;" d="M53 504q0 150 76 149h418q53 0 53 -69q0 -150 -76 -150h-418q-53 0 -53 70z" />
<glyph unicode="&#x2012;" d="M53 504q0 150 76 149h418q53 0 53 -69q0 -150 -76 -150h-418q-53 0 -53 70z" />
<glyph unicode="&#x2013;" horiz-adv-x="1024" d="M-6 504q0 150 76 149h909q53 0 53 -69q0 -150 -76 -150h-909q-53 0 -53 70z" />
<glyph unicode="&#x2014;" horiz-adv-x="2048" d="M0 504q0 150 76 149h1919q53 0 53 -69q0 -150 -76 -150h-1919q-53 0 -53 70z" />
<glyph unicode="&#x2018;" horiz-adv-x="434" d="M-2 1055q0 82 63.5 200.5t143.5 203.5t127 85q86 0 86 -41q0 -23 -26.5 -73t-60.5 -146t-48 -221q-6 -90 -131 -90h-39q-115 0 -115 82z" />
<glyph unicode="&#x2019;" horiz-adv-x="434" d="M16 1014q0 23 27 73t61 146t48 221q6 90 131 90h39q115 0 114.5 -82t-64 -200.5t-143 -203.5t-127.5 -85q-86 0 -86 41z" />
<glyph unicode="&#x201a;" horiz-adv-x="405" d="M0 -215q0 23 26.5 73t60.5 146t48 221q6 90 131 90h39q115 0 115 -81.5t-63.5 -200.5t-143.5 -204t-127 -85q-86 0 -86 41z" />
<glyph unicode="&#x201c;" horiz-adv-x="716" d="M-43 1055q0 82 63.5 200.5t143.5 203.5t127 85q86 0 86 -41q0 -23 -26.5 -73t-60.5 -146t-48 -221q-6 -90 -131 -90h-39q-115 0 -115 82zM319 1055q0 82 63.5 200.5t143.5 203.5t127 85q86 0 86 -41q0 -23 -26.5 -73t-60.5 -146t-48 -221q-6 -90 -131 -90h-39 q-115 0 -115 82z" />
<glyph unicode="&#x201d;" horiz-adv-x="716" d="M-25 1014q0 23 27 73t61 146t48 221q6 90 131 90h39q115 0 114.5 -82t-64 -200.5t-143 -203.5t-127.5 -85q-86 0 -86 41zM338 1014q0 23 26.5 73t60.5 146t48 221q6 90 131 90h39q115 0 115 -82t-63.5 -200.5t-143.5 -203.5t-127 -85q-86 0 -86 41z" />
<glyph unicode="&#x201e;" horiz-adv-x="688" d="M-39 -215q0 23 26.5 73t60.5 146t48 221q6 90 131 90h39q115 0 115 -81.5t-63.5 -200.5t-143.5 -204t-127 -85q-86 0 -86 41zM324 -215q0 23 26.5 73t60.5 146t48 221q6 90 131 90h39q115 0 114.5 -81.5t-64 -200.5t-143 -204t-126.5 -85q-86 0 -86 41z" />
<glyph unicode="&#x2022;" horiz-adv-x="688" d="M70 641q0 117 86 208t215 91q104 0 174.5 -70.5t70.5 -173.5q0 -123 -86 -211t-215 -88q-106 0 -175.5 70t-69.5 174z" />
<glyph unicode="&#x2026;" horiz-adv-x="1263" d="M39 61l18 189q6 66 131 65h66q115 0 115 -65l-19 -189q-6 -66 -131 -65h-65q-68 0 -91.5 15t-23.5 50zM469 61l18 189q6 66 131 65h66q115 0 115 -65l-19 -189q-6 -66 -131 -65h-65q-68 0 -91.5 15t-23.5 50zM899 61l19 189q6 66 131 65h65q115 0 115 -65l-19 -189 q-6 -66 -131 -65h-65q-68 0 -91.5 15t-23.5 50z" />
<glyph unicode="&#x202f;" horiz-adv-x="382" />
<glyph unicode="&#x2039;" horiz-adv-x="614" d="M53 506q0 68 43 112l293 314q29 29 59.5 29t70.5 -32t40 -65q0 -20 -24 -49l-254 -287l194 -286q12 -20 12 -39q0 -31 -46 -70t-85 -39q-28 0 -51 31l-227 313q-27 37 -25 68z" />
<glyph unicode="&#x203a;" horiz-adv-x="614" d="M47 190q0 20 25 50l254 286l-195 287q-12 23 -12 39q0 31 46 70t85 39q28 0 51 -31l227 -314q25 -35 25 -67q0 -68 -43 -113l-293 -313q-29 -29 -59.5 -29t-70.5 32t-40 64z" />
<glyph unicode="&#x205f;" horiz-adv-x="478" />
<glyph unicode="&#x20ac;" horiz-adv-x="1228" d="M-23 524q0 106 68 107h59q2 53 15 155h-62q-47 0 -47 48q0 106 68 106h74q145 510 700 510q123 0 239.5 -38t116.5 -93q0 -43 -58 -120t-95 -77q-4 0 -34 14.5t-85 29t-119 14.5q-248 0 -338 -240h516q18 0 23.5 -6t5.5 -21q0 -43 -27.5 -85t-74.5 -42h-482 q-10 -78 -10 -155h533q18 0 23 -6.5t5 -20.5q0 -43 -27.5 -85t-74.5 -42h-447q47 -225 275 -225q82 0 159.5 19.5t124 40t50.5 20.5q25 0 24 -31q0 -86 -20 -195q-12 -66 -137 -94t-230 -28q-274 0 -417.5 120.5t-164.5 372.5h-81q-47 0 -48 47z" />
<glyph unicode="&#x2122;" horiz-adv-x="1581" d="M47 1339v37q0 57 35 58h545q35 0 35 -58v-37q0 -57 -35 -57h-183v-620q0 -37 -69 -37h-41q-70 0 -70 37v620h-182q-35 0 -35 57zM709 662v737q0 37 69 37h62q55 0 71 -31l203 -361l205 361q16 31 74 31h59q70 0 70 -37v-737q0 -37 -70 -37h-33q-70 0 -69 37v477l-7 6 l-165 -303q-10 -23 -45 -23h-35q-33 0 -45 23l-168 303l-4 -6v-477q0 -37 -70 -37h-33q-69 0 -69 37z" />
<glyph unicode="&#xe000;" horiz-adv-x="1075" d="M0 1075h1075v-1075h-1075v1075z" />
<glyph unicode="&#xfb01;" horiz-adv-x="1153" d="M70 905q0 166 77 166h43l15 154q14 158 101 244.5t233 86.5q197 0 196 -94q0 -33 -25.5 -94t-50.5 -61q-4 0 -24.5 5t-42.5 5q-74 0 -82 -88l-18 -158h122q20 0 26.5 -9t6.5 -32q0 -68 -31.5 -133.5t-87.5 -65.5h-61l-80 -770q-6 -66 -129 -65h-57q-57 0 -87 18.5 t-30 44.5l80 772h-41q-53 0 -53 74zM678 244l78 766q6 66 129 65h57q57 0 87 -18.5t30 -44.5q-76 -700 -76 -721q0 -68 61 -68q16 0 37 6.5t23 6.5q16 0 16 -23q0 -39 -14 -123q-8 -51 -63.5 -78.5t-116.5 -27.5q-248 0 -248 260zM786 1311l19 168q6 66 129 65h57 q57 0 87 -18t30 -45l-18 -168q-6 -66 -129 -66h-58q-57 0 -87 18.5t-30 45.5z" />
<glyph unicode="&#xfb02;" horiz-adv-x="1210" d="M70 905q0 166 77 166h43l15 154q14 158 101 244.5t233 86.5q197 0 196 -94q0 -33 -25.5 -94t-50.5 -61q-4 0 -24.5 5t-42.5 5q-74 0 -82 -88l-18 -158h122q20 0 26.5 -9t6.5 -32q0 -68 -31.5 -133.5t-87.5 -65.5h-61l-80 -770q-6 -66 -129 -65h-57q-57 0 -87 18.5 t-30 44.5l80 772h-41q-53 0 -53 74zM682 244l129 1241q8 61 107 61h98q96 0 96 -55q-125 -1192 -125 -1200q0 -68 62 -68q16 0 36.5 6.5t22.5 6.5q16 0 16 -23q0 -39 -14 -123q-8 -51 -63.5 -78.5t-116.5 -27.5q-248 0 -248 260z" />
<glyph unicode="&#xfb03;" horiz-adv-x="1872" d="M1389 244l78 766q6 65 125 65h4h58q57 0 86.5 -18.5t29.5 -44.5q-76 -700 -75 -721q0 -68 61 -68q16 0 36.5 6.5t22.5 6.5q16 0 17 -23q0 -39 -15 -123q-8 -51 -63 -78.5t-117 -27.5q-248 0 -248 260zM1498 1311l18 168q6 65 125 65h4h58q57 0 86.5 -18t29.5 -45 l-18 -168q-6 -66 -129 -66h-57q-57 0 -87 18.5t-30 45.5zM735 905q0 166 77 166h43l15 154q14 158 101 244.5t233 86.5q196 0 196 -93q0 -34 -25.5 -95t-50.5 -61q-4 0 -24.5 5t-42.5 5q-74 0 -82 -88l-18 -158h122q20 0 26.5 -9t6.5 -32q0 -68 -31.5 -133.5t-87.5 -65.5 h-61l-80 -770q-6 -65 -125 -65h-4h-57q-57 0 -87 18.5t-30 44.5l80 772h-41q-53 0 -53 74zM70 905q0 166 77 166h43l15 154q14 158 101 244.5t233 86.5q196 0 196 -93q0 -34 -25.5 -95t-50.5 -61q-4 0 -24.5 5t-42.5 5q-74 0 -82 -88l-18 -158h122q20 0 26.5 -9t6.5 -32 q0 -68 -31.5 -133.5t-87.5 -65.5h-61l-80 -770q-6 -65 -125 -65h-4h-57q-57 0 -87 18.5t-30 44.5l80 772h-41q-53 0 -53 74z" />
<glyph unicode="&#xfb04;" horiz-adv-x="1938" d="M1398 244l129 1241q8 61 106 61h98q96 0 97 -55q-125 -1192 -125 -1200q0 -68 61 -68q16 0 37 6.5t23 6.5q16 0 16 -23q0 -39 -14 -123q-8 -51 -63.5 -78.5t-117.5 -27.5q-247 0 -247 260zM735 905q0 166 77 166h43l15 154q14 158 101 244.5t233 86.5q196 0 196 -93 q0 -34 -25.5 -95t-50.5 -61q-4 0 -24.5 5t-42.5 5q-74 0 -82 -88l-18 -158h122q20 0 26.5 -9t6.5 -32q0 -68 -31.5 -133.5t-87.5 -65.5h-61l-80 -770q-6 -65 -125 -65h-4h-57q-57 0 -87 18.5t-30 44.5l80 772h-41q-53 0 -53 74zM70 905q0 166 77 166h43l15 154 q14 158 101 244.5t233 86.5q196 0 196 -93q0 -34 -25.5 -95t-50.5 -61q-4 0 -24.5 5t-42.5 5q-74 0 -82 -88l-18 -158h122q20 0 26.5 -9t6.5 -32q0 -68 -31.5 -133.5t-87.5 -65.5h-61l-80 -770q-6 -65 -125 -65h-4h-57q-57 0 -87 18.5t-30 44.5l80 772h-41q-53 0 -53 74z " />
</font>
</defs>
</svg>
